<?xml version="1.0" standalone="no"?>
<!DOCTYPE svg PUBLIC "-//W3C//DTD SVG 1.1//EN" "http://www.w3.org/Graphics/SVG/1.1/DTD/svg11.dtd" >
<svg xmlns="http://www.w3.org/2000/svg" xmlns:xlink="http://www.w3.org/1999/xlink" version="1.1">
<metadata>
Created by FontForge 20201107 at Thu Dec 19 08:30:29 2024
 By 
Copyright  2019 by Ryoichi Tsunekawa. All rights reserved.
</metadata>
<defs>
<font id="FONTSPRINGDEMO-AllRoundGothicMediumRegular" horiz-adv-x="1224" >
  <font-face 
    font-family="FSP DEMO - ll Rnd Gthc Mdm"
    font-weight="400"
    font-stretch="normal"
    units-per-em="2048"
    panose-1="2 11 6 3 2 2 2 2 1 4"
    ascent="1536"
    descent="-512"
    x-height="1012"
    cap-height="1339"
    bbox="-57 -459 1798 1481"
    underline-thickness="102"
    underline-position="-307"
    unicode-range="U+0020-007E"
  />
<missing-glyph 
d="M207 403q-13 0 -19 -2v-200q4 -2 19 -2q37 0 50 25t13 77q0 54 -13 78t-50 24zM518 330v-49h-82v-78h96v-49h-155v297h155v-52h-96v-69h82zM203 150q-47 0 -74 4v292q61 9 76 9q67 0 96 -37.5t29 -116.5t-29.5 -115t-97.5 -36zM586 451h80l39 -164l38 164h82
q3 -45 13 -297h-60q0 108 -6 213l-41 -168h-55l-41 168h-2q-4 -140 -4 -213h-58q3 156 15 297zM987 150q-60 0 -84 35.5t-24 115.5q0 81 24 117.5t84 36.5t85.5 -37t25.5 -117q0 -79 -25.5 -115t-85.5 -36zM987 403q-29 0 -39 -23.5t-10 -78.5q0 -54 10 -78t39 -24
q30 0 40.5 24t10.5 78q0 55 -10 78.5t-41 23.5zM967 1016q49 0 79.5 -24.5t39 -51t8.5 -53.5q0 -43 -34.5 -72.5t-72.5 -34.5q-213 -23 -340 -147q3 8 9 22t25 53.5t39 75.5t50 80.5t59.5 76t66 53.5t71.5 22zM285 909q39 0 78 -21t69.5 -55t58.5 -74.5t48 -81.5t35 -75
t22 -55l8 -21q-117 148 -319 148q-49 0 -88 30t-39 76q0 53 33.5 91t93.5 38zM643 1214q38 -37 48.5 -102t-2.5 -131t-31.5 -126.5t-35.5 -98.5l-18 -39q20 191 -125 330q-35 35 -42 81.5t24 83.5q23 23 53 34t65 3.5t64 -35.5z" />
    <glyph glyph-name=".notdef" 
d="M207 403q-13 0 -19 -2v-200q4 -2 19 -2q37 0 50 25t13 77q0 54 -13 78t-50 24zM518 330v-49h-82v-78h96v-49h-155v297h155v-52h-96v-69h82zM203 150q-47 0 -74 4v292q61 9 76 9q67 0 96 -37.5t29 -116.5t-29.5 -115t-97.5 -36zM586 451h80l39 -164l38 164h82
q3 -45 13 -297h-60q0 108 -6 213l-41 -168h-55l-41 168h-2q-4 -140 -4 -213h-58q3 156 15 297zM987 150q-60 0 -84 35.5t-24 115.5q0 81 24 117.5t84 36.5t85.5 -37t25.5 -117q0 -79 -25.5 -115t-85.5 -36zM987 403q-29 0 -39 -23.5t-10 -78.5q0 -54 10 -78t39 -24
q30 0 40.5 24t10.5 78q0 55 -10 78.5t-41 23.5zM967 1016q49 0 79.5 -24.5t39 -51t8.5 -53.5q0 -43 -34.5 -72.5t-72.5 -34.5q-213 -23 -340 -147q3 8 9 22t25 53.5t39 75.5t50 80.5t59.5 76t66 53.5t71.5 22zM285 909q39 0 78 -21t69.5 -55t58.5 -74.5t48 -81.5t35 -75
t22 -55l8 -21q-117 148 -319 148q-49 0 -88 30t-39 76q0 53 33.5 91t93.5 38zM643 1214q38 -37 48.5 -102t-2.5 -131t-31.5 -126.5t-35.5 -98.5l-18 -39q20 191 -125 330q-35 35 -42 81.5t24 83.5q23 23 53 34t65 3.5t64 -35.5z" />
    <glyph glyph-name=".null" horiz-adv-x="0" 
 />
    <glyph glyph-name="nonmarkingreturn" horiz-adv-x="682" 
 />
    <glyph glyph-name="space" unicode=" " horiz-adv-x="544" 
 />
    <glyph glyph-name="exclam" unicode="!" 
d="M207 403q-13 0 -19 -2v-200q4 -2 19 -2q37 0 50 25t13 77q0 54 -13 78t-50 24zM518 330v-49h-82v-78h96v-49h-155v297h155v-52h-96v-69h82zM203 150q-47 0 -74 4v292q61 9 76 9q67 0 96 -37.5t29 -116.5t-29.5 -115t-97.5 -36zM586 451h80l39 -164l38 164h82
q3 -45 13 -297h-60q0 108 -6 213l-41 -168h-55l-41 168h-2q-4 -140 -4 -213h-58q3 156 15 297zM987 150q-60 0 -84 35.5t-24 115.5q0 81 24 117.5t84 36.5t85.5 -37t25.5 -117q0 -79 -25.5 -115t-85.5 -36zM987 403q-29 0 -39 -23.5t-10 -78.5q0 -54 10 -78t39 -24
q30 0 40.5 24t10.5 78q0 55 -10 78.5t-41 23.5zM967 1016q49 0 79.5 -24.5t39 -51t8.5 -53.5q0 -43 -34.5 -72.5t-72.5 -34.5q-213 -23 -340 -147q3 8 9 22t25 53.5t39 75.5t50 80.5t59.5 76t66 53.5t71.5 22zM285 909q39 0 78 -21t69.5 -55t58.5 -74.5t48 -81.5t35 -75
t22 -55l8 -21q-117 148 -319 148q-49 0 -88 30t-39 76q0 53 33.5 91t93.5 38zM643 1214q38 -37 48.5 -102t-2.5 -131t-31.5 -126.5t-35.5 -98.5l-18 -39q20 191 -125 330q-35 35 -42 81.5t24 83.5q23 23 53 34t65 3.5t64 -35.5z" />
    <glyph glyph-name="quotedbl" unicode="&#x22;" 
d="M207 403q-13 0 -19 -2v-200q4 -2 19 -2q37 0 50 25t13 77q0 54 -13 78t-50 24zM518 330v-49h-82v-78h96v-49h-155v297h155v-52h-96v-69h82zM203 150q-47 0 -74 4v292q61 9 76 9q67 0 96 -37.5t29 -116.5t-29.5 -115t-97.5 -36zM586 451h80l39 -164l38 164h82
q3 -45 13 -297h-60q0 108 -6 213l-41 -168h-55l-41 168h-2q-4 -140 -4 -213h-58q3 156 15 297zM987 150q-60 0 -84 35.5t-24 115.5q0 81 24 117.5t84 36.5t85.5 -37t25.5 -117q0 -79 -25.5 -115t-85.5 -36zM987 403q-29 0 -39 -23.5t-10 -78.5q0 -54 10 -78t39 -24
q30 0 40.5 24t10.5 78q0 55 -10 78.5t-41 23.5zM967 1016q49 0 79.5 -24.5t39 -51t8.5 -53.5q0 -43 -34.5 -72.5t-72.5 -34.5q-213 -23 -340 -147q3 8 9 22t25 53.5t39 75.5t50 80.5t59.5 76t66 53.5t71.5 22zM285 909q39 0 78 -21t69.5 -55t58.5 -74.5t48 -81.5t35 -75
t22 -55l8 -21q-117 148 -319 148q-49 0 -88 30t-39 76q0 53 33.5 91t93.5 38zM643 1214q38 -37 48.5 -102t-2.5 -131t-31.5 -126.5t-35.5 -98.5l-18 -39q20 191 -125 330q-35 35 -42 81.5t24 83.5q23 23 53 34t65 3.5t64 -35.5z" />
    <glyph glyph-name="numbersign" unicode="#" 
d="M207 403q-13 0 -19 -2v-200q4 -2 19 -2q37 0 50 25t13 77q0 54 -13 78t-50 24zM518 330v-49h-82v-78h96v-49h-155v297h155v-52h-96v-69h82zM203 150q-47 0 -74 4v292q61 9 76 9q67 0 96 -37.5t29 -116.5t-29.5 -115t-97.5 -36zM586 451h80l39 -164l38 164h82
q3 -45 13 -297h-60q0 108 -6 213l-41 -168h-55l-41 168h-2q-4 -140 -4 -213h-58q3 156 15 297zM987 150q-60 0 -84 35.5t-24 115.5q0 81 24 117.5t84 36.5t85.5 -37t25.5 -117q0 -79 -25.5 -115t-85.5 -36zM987 403q-29 0 -39 -23.5t-10 -78.5q0 -54 10 -78t39 -24
q30 0 40.5 24t10.5 78q0 55 -10 78.5t-41 23.5zM967 1016q49 0 79.5 -24.5t39 -51t8.5 -53.5q0 -43 -34.5 -72.5t-72.5 -34.5q-213 -23 -340 -147q3 8 9 22t25 53.5t39 75.5t50 80.5t59.5 76t66 53.5t71.5 22zM285 909q39 0 78 -21t69.5 -55t58.5 -74.5t48 -81.5t35 -75
t22 -55l8 -21q-117 148 -319 148q-49 0 -88 30t-39 76q0 53 33.5 91t93.5 38zM643 1214q38 -37 48.5 -102t-2.5 -131t-31.5 -126.5t-35.5 -98.5l-18 -39q20 191 -125 330q-35 35 -42 81.5t24 83.5q23 23 53 34t65 3.5t64 -35.5z" />
    <glyph glyph-name="dollar" unicode="$" 
d="M207 403q-13 0 -19 -2v-200q4 -2 19 -2q37 0 50 25t13 77q0 54 -13 78t-50 24zM518 330v-49h-82v-78h96v-49h-155v297h155v-52h-96v-69h82zM203 150q-47 0 -74 4v292q61 9 76 9q67 0 96 -37.5t29 -116.5t-29.5 -115t-97.5 -36zM586 451h80l39 -164l38 164h82
q3 -45 13 -297h-60q0 108 -6 213l-41 -168h-55l-41 168h-2q-4 -140 -4 -213h-58q3 156 15 297zM987 150q-60 0 -84 35.5t-24 115.5q0 81 24 117.5t84 36.5t85.5 -37t25.5 -117q0 -79 -25.5 -115t-85.5 -36zM987 403q-29 0 -39 -23.5t-10 -78.5q0 -54 10 -78t39 -24
q30 0 40.5 24t10.5 78q0 55 -10 78.5t-41 23.5zM967 1016q49 0 79.5 -24.5t39 -51t8.5 -53.5q0 -43 -34.5 -72.5t-72.5 -34.5q-213 -23 -340 -147q3 8 9 22t25 53.5t39 75.5t50 80.5t59.5 76t66 53.5t71.5 22zM285 909q39 0 78 -21t69.5 -55t58.5 -74.5t48 -81.5t35 -75
t22 -55l8 -21q-117 148 -319 148q-49 0 -88 30t-39 76q0 53 33.5 91t93.5 38zM643 1214q38 -37 48.5 -102t-2.5 -131t-31.5 -126.5t-35.5 -98.5l-18 -39q20 191 -125 330q-35 35 -42 81.5t24 83.5q23 23 53 34t65 3.5t64 -35.5z" />
    <glyph glyph-name="percent" unicode="%" 
d="M207 403q-13 0 -19 -2v-200q4 -2 19 -2q37 0 50 25t13 77q0 54 -13 78t-50 24zM518 330v-49h-82v-78h96v-49h-155v297h155v-52h-96v-69h82zM203 150q-47 0 -74 4v292q61 9 76 9q67 0 96 -37.5t29 -116.5t-29.5 -115t-97.5 -36zM586 451h80l39 -164l38 164h82
q3 -45 13 -297h-60q0 108 -6 213l-41 -168h-55l-41 168h-2q-4 -140 -4 -213h-58q3 156 15 297zM987 150q-60 0 -84 35.5t-24 115.5q0 81 24 117.5t84 36.5t85.5 -37t25.5 -117q0 -79 -25.5 -115t-85.5 -36zM987 403q-29 0 -39 -23.5t-10 -78.5q0 -54 10 -78t39 -24
q30 0 40.5 24t10.5 78q0 55 -10 78.5t-41 23.5zM967 1016q49 0 79.5 -24.5t39 -51t8.5 -53.5q0 -43 -34.5 -72.5t-72.5 -34.5q-213 -23 -340 -147q3 8 9 22t25 53.5t39 75.5t50 80.5t59.5 76t66 53.5t71.5 22zM285 909q39 0 78 -21t69.5 -55t58.5 -74.5t48 -81.5t35 -75
t22 -55l8 -21q-117 148 -319 148q-49 0 -88 30t-39 76q0 53 33.5 91t93.5 38zM643 1214q38 -37 48.5 -102t-2.5 -131t-31.5 -126.5t-35.5 -98.5l-18 -39q20 191 -125 330q-35 35 -42 81.5t24 83.5q23 23 53 34t65 3.5t64 -35.5z" />
    <glyph glyph-name="ampersand" unicode="&#x26;" 
d="M207 403q-13 0 -19 -2v-200q4 -2 19 -2q37 0 50 25t13 77q0 54 -13 78t-50 24zM518 330v-49h-82v-78h96v-49h-155v297h155v-52h-96v-69h82zM203 150q-47 0 -74 4v292q61 9 76 9q67 0 96 -37.5t29 -116.5t-29.5 -115t-97.5 -36zM586 451h80l39 -164l38 164h82
q3 -45 13 -297h-60q0 108 -6 213l-41 -168h-55l-41 168h-2q-4 -140 -4 -213h-58q3 156 15 297zM987 150q-60 0 -84 35.5t-24 115.5q0 81 24 117.5t84 36.5t85.5 -37t25.5 -117q0 -79 -25.5 -115t-85.5 -36zM987 403q-29 0 -39 -23.5t-10 -78.5q0 -54 10 -78t39 -24
q30 0 40.5 24t10.5 78q0 55 -10 78.5t-41 23.5zM967 1016q49 0 79.5 -24.5t39 -51t8.5 -53.5q0 -43 -34.5 -72.5t-72.5 -34.5q-213 -23 -340 -147q3 8 9 22t25 53.5t39 75.5t50 80.5t59.5 76t66 53.5t71.5 22zM285 909q39 0 78 -21t69.5 -55t58.5 -74.5t48 -81.5t35 -75
t22 -55l8 -21q-117 148 -319 148q-49 0 -88 30t-39 76q0 53 33.5 91t93.5 38zM643 1214q38 -37 48.5 -102t-2.5 -131t-31.5 -126.5t-35.5 -98.5l-18 -39q20 191 -125 330q-35 35 -42 81.5t24 83.5q23 23 53 34t65 3.5t64 -35.5z" />
    <glyph glyph-name="quotesingle" unicode="'" 
d="M207 403q-13 0 -19 -2v-200q4 -2 19 -2q37 0 50 25t13 77q0 54 -13 78t-50 24zM518 330v-49h-82v-78h96v-49h-155v297h155v-52h-96v-69h82zM203 150q-47 0 -74 4v292q61 9 76 9q67 0 96 -37.5t29 -116.5t-29.5 -115t-97.5 -36zM586 451h80l39 -164l38 164h82
q3 -45 13 -297h-60q0 108 -6 213l-41 -168h-55l-41 168h-2q-4 -140 -4 -213h-58q3 156 15 297zM987 150q-60 0 -84 35.5t-24 115.5q0 81 24 117.5t84 36.5t85.5 -37t25.5 -117q0 -79 -25.5 -115t-85.5 -36zM987 403q-29 0 -39 -23.5t-10 -78.5q0 -54 10 -78t39 -24
q30 0 40.5 24t10.5 78q0 55 -10 78.5t-41 23.5zM967 1016q49 0 79.5 -24.5t39 -51t8.5 -53.5q0 -43 -34.5 -72.5t-72.5 -34.5q-213 -23 -340 -147q3 8 9 22t25 53.5t39 75.5t50 80.5t59.5 76t66 53.5t71.5 22zM285 909q39 0 78 -21t69.5 -55t58.5 -74.5t48 -81.5t35 -75
t22 -55l8 -21q-117 148 -319 148q-49 0 -88 30t-39 76q0 53 33.5 91t93.5 38zM643 1214q38 -37 48.5 -102t-2.5 -131t-31.5 -126.5t-35.5 -98.5l-18 -39q20 191 -125 330q-35 35 -42 81.5t24 83.5q23 23 53 34t65 3.5t64 -35.5z" />
    <glyph glyph-name="parenleft" unicode="(" 
d="M207 403q-13 0 -19 -2v-200q4 -2 19 -2q37 0 50 25t13 77q0 54 -13 78t-50 24zM518 330v-49h-82v-78h96v-49h-155v297h155v-52h-96v-69h82zM203 150q-47 0 -74 4v292q61 9 76 9q67 0 96 -37.5t29 -116.5t-29.5 -115t-97.5 -36zM586 451h80l39 -164l38 164h82
q3 -45 13 -297h-60q0 108 -6 213l-41 -168h-55l-41 168h-2q-4 -140 -4 -213h-58q3 156 15 297zM987 150q-60 0 -84 35.5t-24 115.5q0 81 24 117.5t84 36.5t85.5 -37t25.5 -117q0 -79 -25.5 -115t-85.5 -36zM987 403q-29 0 -39 -23.5t-10 -78.5q0 -54 10 -78t39 -24
q30 0 40.5 24t10.5 78q0 55 -10 78.5t-41 23.5zM967 1016q49 0 79.5 -24.5t39 -51t8.5 -53.5q0 -43 -34.5 -72.5t-72.5 -34.5q-213 -23 -340 -147q3 8 9 22t25 53.5t39 75.5t50 80.5t59.5 76t66 53.5t71.5 22zM285 909q39 0 78 -21t69.5 -55t58.5 -74.5t48 -81.5t35 -75
t22 -55l8 -21q-117 148 -319 148q-49 0 -88 30t-39 76q0 53 33.5 91t93.5 38zM643 1214q38 -37 48.5 -102t-2.5 -131t-31.5 -126.5t-35.5 -98.5l-18 -39q20 191 -125 330q-35 35 -42 81.5t24 83.5q23 23 53 34t65 3.5t64 -35.5z" />
    <glyph glyph-name="parenright" unicode=")" 
d="M207 403q-13 0 -19 -2v-200q4 -2 19 -2q37 0 50 25t13 77q0 54 -13 78t-50 24zM518 330v-49h-82v-78h96v-49h-155v297h155v-52h-96v-69h82zM203 150q-47 0 -74 4v292q61 9 76 9q67 0 96 -37.5t29 -116.5t-29.5 -115t-97.5 -36zM586 451h80l39 -164l38 164h82
q3 -45 13 -297h-60q0 108 -6 213l-41 -168h-55l-41 168h-2q-4 -140 -4 -213h-58q3 156 15 297zM987 150q-60 0 -84 35.5t-24 115.5q0 81 24 117.5t84 36.5t85.5 -37t25.5 -117q0 -79 -25.5 -115t-85.5 -36zM987 403q-29 0 -39 -23.5t-10 -78.5q0 -54 10 -78t39 -24
q30 0 40.5 24t10.5 78q0 55 -10 78.5t-41 23.5zM967 1016q49 0 79.5 -24.5t39 -51t8.5 -53.5q0 -43 -34.5 -72.5t-72.5 -34.5q-213 -23 -340 -147q3 8 9 22t25 53.5t39 75.5t50 80.5t59.5 76t66 53.5t71.5 22zM285 909q39 0 78 -21t69.5 -55t58.5 -74.5t48 -81.5t35 -75
t22 -55l8 -21q-117 148 -319 148q-49 0 -88 30t-39 76q0 53 33.5 91t93.5 38zM643 1214q38 -37 48.5 -102t-2.5 -131t-31.5 -126.5t-35.5 -98.5l-18 -39q20 191 -125 330q-35 35 -42 81.5t24 83.5q23 23 53 34t65 3.5t64 -35.5z" />
    <glyph glyph-name="asterisk" unicode="*" 
d="M207 403q-13 0 -19 -2v-200q4 -2 19 -2q37 0 50 25t13 77q0 54 -13 78t-50 24zM518 330v-49h-82v-78h96v-49h-155v297h155v-52h-96v-69h82zM203 150q-47 0 -74 4v292q61 9 76 9q67 0 96 -37.5t29 -116.5t-29.5 -115t-97.5 -36zM586 451h80l39 -164l38 164h82
q3 -45 13 -297h-60q0 108 -6 213l-41 -168h-55l-41 168h-2q-4 -140 -4 -213h-58q3 156 15 297zM987 150q-60 0 -84 35.5t-24 115.5q0 81 24 117.5t84 36.5t85.5 -37t25.5 -117q0 -79 -25.5 -115t-85.5 -36zM987 403q-29 0 -39 -23.5t-10 -78.5q0 -54 10 -78t39 -24
q30 0 40.5 24t10.5 78q0 55 -10 78.5t-41 23.5zM967 1016q49 0 79.5 -24.5t39 -51t8.5 -53.5q0 -43 -34.5 -72.5t-72.5 -34.5q-213 -23 -340 -147q3 8 9 22t25 53.5t39 75.5t50 80.5t59.5 76t66 53.5t71.5 22zM285 909q39 0 78 -21t69.5 -55t58.5 -74.5t48 -81.5t35 -75
t22 -55l8 -21q-117 148 -319 148q-49 0 -88 30t-39 76q0 53 33.5 91t93.5 38zM643 1214q38 -37 48.5 -102t-2.5 -131t-31.5 -126.5t-35.5 -98.5l-18 -39q20 191 -125 330q-35 35 -42 81.5t24 83.5q23 23 53 34t65 3.5t64 -35.5z" />
    <glyph glyph-name="plus" unicode="+" 
d="M207 403q-13 0 -19 -2v-200q4 -2 19 -2q37 0 50 25t13 77q0 54 -13 78t-50 24zM518 330v-49h-82v-78h96v-49h-155v297h155v-52h-96v-69h82zM203 150q-47 0 -74 4v292q61 9 76 9q67 0 96 -37.5t29 -116.5t-29.5 -115t-97.5 -36zM586 451h80l39 -164l38 164h82
q3 -45 13 -297h-60q0 108 -6 213l-41 -168h-55l-41 168h-2q-4 -140 -4 -213h-58q3 156 15 297zM987 150q-60 0 -84 35.5t-24 115.5q0 81 24 117.5t84 36.5t85.5 -37t25.5 -117q0 -79 -25.5 -115t-85.5 -36zM987 403q-29 0 -39 -23.5t-10 -78.5q0 -54 10 -78t39 -24
q30 0 40.5 24t10.5 78q0 55 -10 78.5t-41 23.5zM967 1016q49 0 79.5 -24.5t39 -51t8.5 -53.5q0 -43 -34.5 -72.5t-72.5 -34.5q-213 -23 -340 -147q3 8 9 22t25 53.5t39 75.5t50 80.5t59.5 76t66 53.5t71.5 22zM285 909q39 0 78 -21t69.5 -55t58.5 -74.5t48 -81.5t35 -75
t22 -55l8 -21q-117 148 -319 148q-49 0 -88 30t-39 76q0 53 33.5 91t93.5 38zM643 1214q38 -37 48.5 -102t-2.5 -131t-31.5 -126.5t-35.5 -98.5l-18 -39q20 191 -125 330q-35 35 -42 81.5t24 83.5q23 23 53 34t65 3.5t64 -35.5z" />
    <glyph glyph-name="comma" unicode="," horiz-adv-x="507" 
d="M129 -268l78 252q-39 14 -63.5 48.5t-24.5 76.5q0 59 38.5 97t96.5 38t96.5 -38t38.5 -97q0 -42 -16 -74l-129 -303h-115z" />
    <glyph glyph-name="hyphen" unicode="-" 
d="M207 403q-13 0 -19 -2v-200q4 -2 19 -2q37 0 50 25t13 77q0 54 -13 78t-50 24zM518 330v-49h-82v-78h96v-49h-155v297h155v-52h-96v-69h82zM203 150q-47 0 -74 4v292q61 9 76 9q67 0 96 -37.5t29 -116.5t-29.5 -115t-97.5 -36zM586 451h80l39 -164l38 164h82
q3 -45 13 -297h-60q0 108 -6 213l-41 -168h-55l-41 168h-2q-4 -140 -4 -213h-58q3 156 15 297zM987 150q-60 0 -84 35.5t-24 115.5q0 81 24 117.5t84 36.5t85.5 -37t25.5 -117q0 -79 -25.5 -115t-85.5 -36zM987 403q-29 0 -39 -23.5t-10 -78.5q0 -54 10 -78t39 -24
q30 0 40.5 24t10.5 78q0 55 -10 78.5t-41 23.5zM967 1016q49 0 79.5 -24.5t39 -51t8.5 -53.5q0 -43 -34.5 -72.5t-72.5 -34.5q-213 -23 -340 -147q3 8 9 22t25 53.5t39 75.5t50 80.5t59.5 76t66 53.5t71.5 22zM285 909q39 0 78 -21t69.5 -55t58.5 -74.5t48 -81.5t35 -75
t22 -55l8 -21q-117 148 -319 148q-49 0 -88 30t-39 76q0 53 33.5 91t93.5 38zM643 1214q38 -37 48.5 -102t-2.5 -131t-31.5 -126.5t-35.5 -98.5l-18 -39q20 191 -125 330q-35 35 -42 81.5t24 83.5q23 23 53 34t65 3.5t64 -35.5z" />
    <glyph glyph-name="period" unicode="." horiz-adv-x="507" 
d="M254 -27q-58 0 -96.5 38.5t-38.5 97.5t38.5 97t96.5 38t96.5 -38t38.5 -97t-38.5 -97.5t-96.5 -38.5z" />
    <glyph glyph-name="slash" unicode="/" 
d="M207 403q-13 0 -19 -2v-200q4 -2 19 -2q37 0 50 25t13 77q0 54 -13 78t-50 24zM518 330v-49h-82v-78h96v-49h-155v297h155v-52h-96v-69h82zM203 150q-47 0 -74 4v292q61 9 76 9q67 0 96 -37.5t29 -116.5t-29.5 -115t-97.5 -36zM586 451h80l39 -164l38 164h82
q3 -45 13 -297h-60q0 108 -6 213l-41 -168h-55l-41 168h-2q-4 -140 -4 -213h-58q3 156 15 297zM987 150q-60 0 -84 35.5t-24 115.5q0 81 24 117.5t84 36.5t85.5 -37t25.5 -117q0 -79 -25.5 -115t-85.5 -36zM987 403q-29 0 -39 -23.5t-10 -78.5q0 -54 10 -78t39 -24
q30 0 40.5 24t10.5 78q0 55 -10 78.5t-41 23.5zM967 1016q49 0 79.5 -24.5t39 -51t8.5 -53.5q0 -43 -34.5 -72.5t-72.5 -34.5q-213 -23 -340 -147q3 8 9 22t25 53.5t39 75.5t50 80.5t59.5 76t66 53.5t71.5 22zM285 909q39 0 78 -21t69.5 -55t58.5 -74.5t48 -81.5t35 -75
t22 -55l8 -21q-117 148 -319 148q-49 0 -88 30t-39 76q0 53 33.5 91t93.5 38zM643 1214q38 -37 48.5 -102t-2.5 -131t-31.5 -126.5t-35.5 -98.5l-18 -39q20 191 -125 330q-35 35 -42 81.5t24 83.5q23 23 53 34t65 3.5t64 -35.5z" />
    <glyph glyph-name="zero" unicode="0" horiz-adv-x="1130" 
d="M565 -27q-212 0 -343.5 131t-131.5 347v438q0 216 131.5 346.5t343.5 130.5t343.5 -130.5t131.5 -346.5v-438q0 -216 -131.5 -347t-343.5 -131zM565 154q129 0 205 80.5t76 216.5v438q0 136 -76 216.5t-205 80.5t-204.5 -80t-75.5 -217v-438q0 -137 75.5 -217t204.5 -80z
" />
    <glyph glyph-name="one" unicode="1" horiz-adv-x="659" 
d="M348 0v1165h-291v174h486v-1339h-195z" />
    <glyph glyph-name="two" unicode="2" horiz-adv-x="1001" 
d="M70 0v166l489 459q83 79 127.5 152t44.5 153q0 116 -60.5 186t-172.5 70q-109 0 -172.5 -71.5t-63.5 -188.5v-29h-190v18q0 206 115 328.5t313 122.5q196 0 312 -122t116 -314q0 -124 -55.5 -218.5t-172.5 -201.5l-364 -336h575v-174h-841z" />
    <glyph glyph-name="three" unicode="3" horiz-adv-x="1052" 
d="M522 -27q-205 0 -333.5 111.5t-129.5 304.5h189q0 -104 72.5 -169.5t199.5 -65.5t197.5 66t70.5 169q0 110 -70.5 172t-205.5 62h-156v172h156q231 0 231 194q0 85 -59 141t-164 56q-103 0 -161 -55t-64 -144h-189q6 180 118.5 279.5t297.5 99.5q186 0 301 -98.5
t115 -263.5q0 -105 -45.5 -179.5t-132.5 -111.5v-4q109 -39 168 -123t59 -207q0 -185 -130 -295.5t-335 -110.5z" />
    <glyph glyph-name="four" unicode="4" 
d="M207 403q-13 0 -19 -2v-200q4 -2 19 -2q37 0 50 25t13 77q0 54 -13 78t-50 24zM518 330v-49h-82v-78h96v-49h-155v297h155v-52h-96v-69h82zM203 150q-47 0 -74 4v292q61 9 76 9q67 0 96 -37.5t29 -116.5t-29.5 -115t-97.5 -36zM586 451h80l39 -164l38 164h82
q3 -45 13 -297h-60q0 108 -6 213l-41 -168h-55l-41 168h-2q-4 -140 -4 -213h-58q3 156 15 297zM987 150q-60 0 -84 35.5t-24 115.5q0 81 24 117.5t84 36.5t85.5 -37t25.5 -117q0 -79 -25.5 -115t-85.5 -36zM987 403q-29 0 -39 -23.5t-10 -78.5q0 -54 10 -78t39 -24
q30 0 40.5 24t10.5 78q0 55 -10 78.5t-41 23.5zM967 1016q49 0 79.5 -24.5t39 -51t8.5 -53.5q0 -43 -34.5 -72.5t-72.5 -34.5q-213 -23 -340 -147q3 8 9 22t25 53.5t39 75.5t50 80.5t59.5 76t66 53.5t71.5 22zM285 909q39 0 78 -21t69.5 -55t58.5 -74.5t48 -81.5t35 -75
t22 -55l8 -21q-117 148 -319 148q-49 0 -88 30t-39 76q0 53 33.5 91t93.5 38zM643 1214q38 -37 48.5 -102t-2.5 -131t-31.5 -126.5t-35.5 -98.5l-18 -39q20 191 -125 330q-35 35 -42 81.5t24 83.5q23 23 53 34t65 3.5t64 -35.5z" />
    <glyph glyph-name="five" unicode="5" horiz-adv-x="1069" 
d="M528 -27q-191 0 -321 112t-150 290h197q21 -100 94 -160.5t180 -60.5q127 0 204 82t77 217q0 126 -77 204t-204 78q-87 0 -151.5 -40t-97.5 -109l-175 53l91 700h698v-174h-549l-51 -389q88 127 276 127q185 0 310 -125t125 -325q0 -213 -132.5 -346.5t-343.5 -133.5z
" />
    <glyph glyph-name="six" unicode="6" horiz-adv-x="1081" 
d="M541 -27q-214 0 -344.5 133t-130.5 345q0 65 11.5 122.5t36.5 110.5t37.5 75.5t41.5 67.5l331 512h215l-307 -465q74 41 168 41q182 0 299 -132.5t117 -333.5q0 -212 -132 -344t-343 -132zM541 154q128 0 203 81t75 220q0 135 -75 215t-201 80q-128 0 -204.5 -81
t-76.5 -218q0 -136 75.5 -216.5t203.5 -80.5z" />
    <glyph glyph-name="seven" unicode="7" horiz-adv-x="987" 
d="M106 0l607 1165h-656v174h871v-165l-611 -1174h-211z" />
    <glyph glyph-name="eight" unicode="8" horiz-adv-x="1077" 
d="M539 -27q-212 0 -342.5 110.5t-130.5 293.5q0 123 61.5 208t173.5 124v4q-188 76 -188 291q0 165 116.5 263.5t309.5 98.5t309.5 -98.5t116.5 -263.5q0 -106 -49 -180t-140 -111v-4q112 -39 174 -124t62 -208q0 -183 -130.5 -293.5t-342.5 -110.5zM526 793h25
q103 0 162 51.5t59 140.5q0 88 -60.5 144.5t-172.5 56.5t-173 -56.5t-61 -144.5q0 -89 59 -140.5t162 -51.5zM539 154q134 0 207 66.5t73 172.5q0 110 -71.5 172t-196.5 62h-25q-125 0 -196.5 -62t-71.5 -172q0 -106 73.5 -172.5t207.5 -66.5z" />
    <glyph glyph-name="nine" unicode="9" horiz-adv-x="1081" 
d="M342 0l307 465q-74 -41 -168 -41q-182 0 -298.5 133t-116.5 334q0 212 132 343.5t343 131.5q214 0 344.5 -132.5t130.5 -344.5q0 -65 -11.5 -122.5t-36 -110.5t-38 -76t-41.5 -68l-332 -512h-215zM539 590q128 0 204 80.5t76 218.5q0 136 -75 216.5t-203 80.5t-203.5 -81
t-75.5 -220q0 -135 75.5 -215t201.5 -80z" />
    <glyph glyph-name="colon" unicode=":" horiz-adv-x="507" 
d="M254 692q-58 0 -96.5 38t-38.5 97t38.5 97.5t96.5 38.5t96.5 -38.5t38.5 -97.5t-38.5 -97t-96.5 -38zM254 -27q-58 0 -96.5 38.5t-38.5 97.5t38.5 97t96.5 38t96.5 -38t38.5 -97t-38.5 -97.5t-96.5 -38.5z" />
    <glyph glyph-name="semicolon" unicode=";" horiz-adv-x="507" 
d="M254 692q-58 0 -96.5 38t-38.5 97t38.5 97.5t96.5 38.5t96.5 -38.5t38.5 -97.5t-38.5 -97t-96.5 -38zM129 -268l78 252q-39 14 -63.5 48.5t-24.5 76.5q0 59 38.5 97t96.5 38t96.5 -38t38.5 -97q0 -42 -16 -74l-129 -303h-115z" />
    <glyph glyph-name="less" unicode="&#x3c;" 
d="M207 403q-13 0 -19 -2v-200q4 -2 19 -2q37 0 50 25t13 77q0 54 -13 78t-50 24zM518 330v-49h-82v-78h96v-49h-155v297h155v-52h-96v-69h82zM203 150q-47 0 -74 4v292q61 9 76 9q67 0 96 -37.5t29 -116.5t-29.5 -115t-97.5 -36zM586 451h80l39 -164l38 164h82
q3 -45 13 -297h-60q0 108 -6 213l-41 -168h-55l-41 168h-2q-4 -140 -4 -213h-58q3 156 15 297zM987 150q-60 0 -84 35.5t-24 115.5q0 81 24 117.5t84 36.5t85.5 -37t25.5 -117q0 -79 -25.5 -115t-85.5 -36zM987 403q-29 0 -39 -23.5t-10 -78.5q0 -54 10 -78t39 -24
q30 0 40.5 24t10.5 78q0 55 -10 78.5t-41 23.5zM967 1016q49 0 79.5 -24.5t39 -51t8.5 -53.5q0 -43 -34.5 -72.5t-72.5 -34.5q-213 -23 -340 -147q3 8 9 22t25 53.5t39 75.5t50 80.5t59.5 76t66 53.5t71.5 22zM285 909q39 0 78 -21t69.5 -55t58.5 -74.5t48 -81.5t35 -75
t22 -55l8 -21q-117 148 -319 148q-49 0 -88 30t-39 76q0 53 33.5 91t93.5 38zM643 1214q38 -37 48.5 -102t-2.5 -131t-31.5 -126.5t-35.5 -98.5l-18 -39q20 191 -125 330q-35 35 -42 81.5t24 83.5q23 23 53 34t65 3.5t64 -35.5z" />
    <glyph glyph-name="equal" unicode="=" 
d="M207 403q-13 0 -19 -2v-200q4 -2 19 -2q37 0 50 25t13 77q0 54 -13 78t-50 24zM518 330v-49h-82v-78h96v-49h-155v297h155v-52h-96v-69h82zM203 150q-47 0 -74 4v292q61 9 76 9q67 0 96 -37.5t29 -116.5t-29.5 -115t-97.5 -36zM586 451h80l39 -164l38 164h82
q3 -45 13 -297h-60q0 108 -6 213l-41 -168h-55l-41 168h-2q-4 -140 -4 -213h-58q3 156 15 297zM987 150q-60 0 -84 35.5t-24 115.5q0 81 24 117.5t84 36.5t85.5 -37t25.5 -117q0 -79 -25.5 -115t-85.5 -36zM987 403q-29 0 -39 -23.5t-10 -78.5q0 -54 10 -78t39 -24
q30 0 40.5 24t10.5 78q0 55 -10 78.5t-41 23.5zM967 1016q49 0 79.5 -24.5t39 -51t8.5 -53.5q0 -43 -34.5 -72.5t-72.5 -34.5q-213 -23 -340 -147q3 8 9 22t25 53.5t39 75.5t50 80.5t59.5 76t66 53.5t71.5 22zM285 909q39 0 78 -21t69.5 -55t58.5 -74.5t48 -81.5t35 -75
t22 -55l8 -21q-117 148 -319 148q-49 0 -88 30t-39 76q0 53 33.5 91t93.5 38zM643 1214q38 -37 48.5 -102t-2.5 -131t-31.5 -126.5t-35.5 -98.5l-18 -39q20 191 -125 330q-35 35 -42 81.5t24 83.5q23 23 53 34t65 3.5t64 -35.5z" />
    <glyph glyph-name="greater" unicode="&#x3e;" 
d="M207 403q-13 0 -19 -2v-200q4 -2 19 -2q37 0 50 25t13 77q0 54 -13 78t-50 24zM518 330v-49h-82v-78h96v-49h-155v297h155v-52h-96v-69h82zM203 150q-47 0 -74 4v292q61 9 76 9q67 0 96 -37.5t29 -116.5t-29.5 -115t-97.5 -36zM586 451h80l39 -164l38 164h82
q3 -45 13 -297h-60q0 108 -6 213l-41 -168h-55l-41 168h-2q-4 -140 -4 -213h-58q3 156 15 297zM987 150q-60 0 -84 35.5t-24 115.5q0 81 24 117.5t84 36.5t85.5 -37t25.5 -117q0 -79 -25.5 -115t-85.5 -36zM987 403q-29 0 -39 -23.5t-10 -78.5q0 -54 10 -78t39 -24
q30 0 40.5 24t10.5 78q0 55 -10 78.5t-41 23.5zM967 1016q49 0 79.5 -24.5t39 -51t8.5 -53.5q0 -43 -34.5 -72.5t-72.5 -34.5q-213 -23 -340 -147q3 8 9 22t25 53.5t39 75.5t50 80.5t59.5 76t66 53.5t71.5 22zM285 909q39 0 78 -21t69.5 -55t58.5 -74.5t48 -81.5t35 -75
t22 -55l8 -21q-117 148 -319 148q-49 0 -88 30t-39 76q0 53 33.5 91t93.5 38zM643 1214q38 -37 48.5 -102t-2.5 -131t-31.5 -126.5t-35.5 -98.5l-18 -39q20 191 -125 330q-35 35 -42 81.5t24 83.5q23 23 53 34t65 3.5t64 -35.5z" />
    <glyph glyph-name="question" unicode="?" horiz-adv-x="958" 
d="M328 389v25q0 40 7 75t16 60.5t28.5 52t32.5 41.5t40.5 36.5t40.5 30.5t44 29q43 28 64 44.5t49 45t40 63t12 77.5q0 101 -63 159t-166 58q-100 0 -165.5 -59t-65.5 -162v-17h-183v23q0 179 118 287t302 108q186 0 303 -106.5t117 -288.5q0 -45 -7.5 -84t-18 -67.5
t-31 -56t-35.5 -44t-44 -37.5t-44 -30.5t-47 -28.5q-42 -25 -63.5 -40t-49 -41t-39.5 -57t-12 -71v-25h-180zM422 -27q-58 0 -96.5 38.5t-38.5 97.5t38.5 97t96.5 38t96.5 -38t38.5 -97t-38.5 -97.5t-96.5 -38.5z" />
    <glyph glyph-name="at" unicode="@" 
d="M207 403q-13 0 -19 -2v-200q4 -2 19 -2q37 0 50 25t13 77q0 54 -13 78t-50 24zM518 330v-49h-82v-78h96v-49h-155v297h155v-52h-96v-69h82zM203 150q-47 0 -74 4v292q61 9 76 9q67 0 96 -37.5t29 -116.5t-29.5 -115t-97.5 -36zM586 451h80l39 -164l38 164h82
q3 -45 13 -297h-60q0 108 -6 213l-41 -168h-55l-41 168h-2q-4 -140 -4 -213h-58q3 156 15 297zM987 150q-60 0 -84 35.5t-24 115.5q0 81 24 117.5t84 36.5t85.5 -37t25.5 -117q0 -79 -25.5 -115t-85.5 -36zM987 403q-29 0 -39 -23.5t-10 -78.5q0 -54 10 -78t39 -24
q30 0 40.5 24t10.5 78q0 55 -10 78.5t-41 23.5zM967 1016q49 0 79.5 -24.5t39 -51t8.5 -53.5q0 -43 -34.5 -72.5t-72.5 -34.5q-213 -23 -340 -147q3 8 9 22t25 53.5t39 75.5t50 80.5t59.5 76t66 53.5t71.5 22zM285 909q39 0 78 -21t69.5 -55t58.5 -74.5t48 -81.5t35 -75
t22 -55l8 -21q-117 148 -319 148q-49 0 -88 30t-39 76q0 53 33.5 91t93.5 38zM643 1214q38 -37 48.5 -102t-2.5 -131t-31.5 -126.5t-35.5 -98.5l-18 -39q20 191 -125 330q-35 35 -42 81.5t24 83.5q23 23 53 34t65 3.5t64 -35.5z" />
    <glyph glyph-name="A" unicode="A" horiz-adv-x="1376" 
d="M104 0v788q0 269 151 423.5t429 154.5q281 0 433.5 -154.5t152.5 -423.5v-788h-209v424h-754v-424h-203zM307 616h754v172q0 184 -96 285t-281 101t-281 -101t-96 -285v-172z" />
    <glyph glyph-name="B" unicode="B" horiz-adv-x="1277" 
d="M137 0v1339h645q182 0 281.5 -94.5t99.5 -249.5q0 -104 -48 -181.5t-136 -117.5v-4q115 -34 180.5 -122.5t65.5 -211.5q0 -160 -102 -259t-287 -99h-699zM346 778h414q93 0 144.5 51.5t51.5 133.5q0 84 -49 134t-151 50h-410v-369zM346 193h455q105 0 157 53.5t52 138.5
q0 89 -55 145t-150 56h-459v-393z" />
    <glyph glyph-name="C" unicode="C" horiz-adv-x="1538" 
d="M782 -27q-154 0 -287 53t-226 145t-146 221t-53 278t53 278t146 221t226 144.5t287 52.5q254 0 439 -136t247 -360h-221q-55 139 -178 221.5t-287 82.5q-221 0 -361 -142t-140 -362t140 -362t361 -142q164 0 287 82t178 221h221q-62 -224 -247 -360t-439 -136z" />
    <glyph glyph-name="D" unicode="D" horiz-adv-x="1396" 
d="M137 0v1339h477q343 0 528 -180.5t185 -488.5t-185 -489t-528 -181h-477zM346 193h268q250 0 376 126.5t126 350.5t-126 350.5t-376 126.5h-268v-954z" />
    <glyph glyph-name="E" unicode="E" horiz-adv-x="1216" 
d="M137 0v1339h985v-192h-776v-369h658v-192h-658v-393h776v-193h-985z" />
    <glyph glyph-name="F" unicode="F" horiz-adv-x="1165" 
d="M137 0v1339h969v-192h-760v-369h641v-192h-641v-586h-209z" />
    <glyph glyph-name="G" unicode="G" horiz-adv-x="1550" 
d="M782 -27q-154 0 -287 53t-226 145t-146 221t-53 278t53 278t146 221t226 144.5t287 52.5q241 0 420 -121.5t252 -326.5h-231q-59 120 -174 188t-267 68q-221 0 -361 -142t-140 -362t140 -362t361 -142q184 0 312.5 90t175.5 256h-570v193h793v-103q-12 -136 -69.5 -253
t-150 -199.5t-219.5 -129.5t-272 -47z" />
    <glyph glyph-name="H" unicode="H" horiz-adv-x="1439" 
d="M137 0v1339h209v-563h748v563h209v-1339h-209v584h-748v-584h-209z" />
    <glyph glyph-name="I" unicode="I" horiz-adv-x="491" 
d="M141 0v1339h209v-1339h-209z" />
    <glyph glyph-name="J" unicode="J" horiz-adv-x="1169" 
d="M553 -27q-240 0 -371 134t-131 366v12h203v-12q0 -145 76 -226t223 -81t224 80t77 227v866h209v-866q0 -231 -133.5 -365.5t-376.5 -134.5z" />
    <glyph glyph-name="K" unicode="K" horiz-adv-x="1218" 
d="M137 0v1339h209v-610l553 610h264l-620 -659l641 -680h-271l-567 625v-625h-209z" />
    <glyph glyph-name="L" unicode="L" horiz-adv-x="1150" 
d="M137 0v1339h209v-1146h752v-193h-961z" />
    <glyph glyph-name="M" unicode="M" horiz-adv-x="1904" 
d="M106 0v874q0 239 128 365.5t331 126.5q132 0 232 -57t155 -166q55 109 155 166t232 57q203 0 331 -126.5t128 -365.5v-874h-209v874q0 148 -73 224t-193 76t-193 -77t-73 -223v-874h-209v874q0 146 -73 223t-193 77t-193.5 -76t-73.5 -224v-874h-209z" />
    <glyph glyph-name="N" unicode="N" horiz-adv-x="1345" 
d="M106 0v811q0 258 148.5 406.5t417.5 148.5q271 0 419 -148.5t148 -406.5v-811h-209v811q0 171 -92 267t-266 96q-173 0 -265 -96t-92 -267v-811h-209z" />
    <glyph glyph-name="O" unicode="O" horiz-adv-x="1564" 
d="M782 -27q-154 0 -287 53t-226 145t-146 221t-53 278t53 278t146 221t226 144.5t287 52.5q206 0 369 -90t253.5 -249t90.5 -357t-90.5 -357.5t-253.5 -249.5t-369 -90zM782 166q221 0 361.5 142t140.5 362t-140.5 362t-361.5 142t-361 -142t-140 -362t140 -362t361 -142z
" />
    <glyph glyph-name="P" unicode="P" horiz-adv-x="1228" 
d="M137 0v1339h561q244 0 366 -120t122 -320t-122.5 -321t-365.5 -121h-352v-457h-209zM346 649h356q143 0 208 67.5t65 182.5q0 114 -65 181t-208 67h-356v-498z" />
    <glyph glyph-name="Q" unicode="Q" horiz-adv-x="1564" 
d="M1509 -211h-237l-185 244q-138 -60 -305 -60q-154 0 -287 53t-226 145t-146 221t-53 278t53 278t146 221t226 144.5t287 52.5q206 0 369 -90t253.5 -249t90.5 -357q0 -166 -63.5 -304t-180.5 -233zM782 166q98 0 183 31l-230 303h242l153 -205q73 69 113.5 165t40.5 210
q0 220 -140.5 362t-361.5 142t-361 -142t-140 -362t140 -362t361 -142z" />
    <glyph glyph-name="R" unicode="R" horiz-adv-x="1284" 
d="M137 0v1339h576q237 0 355 -117t118 -313q0 -157 -76 -264.5t-229 -146.5l354 -498h-250l-319 479h-320v-479h-209zM346 672h369q260 0 260 237q0 238 -260 238h-369v-475z" />
    <glyph glyph-name="S" unicode="S" horiz-adv-x="1128" 
d="M561 -27q-221 0 -355 110t-138 300h206q3 -100 78 -158.5t209 -58.5q138 0 214.5 58.5t76.5 158.5q0 40 -16.5 70t-40 48t-67 32.5t-77.5 22t-92 17.5q-8 1 -12 2q-172 30 -246 62q-169 71 -197 239q-6 37 -6 78q0 184 127.5 298t337.5 114q205 0 333 -109.5t134 -289.5
h-199q-5 92 -74 149.5t-190 57.5q-126 0 -197 -59t-71 -154q0 -34 9 -60t35 -45.5t43 -31t65 -24t66.5 -16t78.5 -14.5q7 -1 10 -2q173 -30 248 -62q168 -71 197 -238q6 -37 6 -79q0 -191 -135.5 -303.5t-360.5 -112.5z" />
    <glyph glyph-name="T" unicode="T" horiz-adv-x="1169" 
d="M479 0v1147h-424v192h1059v-192h-426v-1147h-209z" />
    <glyph glyph-name="U" unicode="U" horiz-adv-x="1335" 
d="M672 -27q-269 0 -417.5 148.5t-148.5 406.5v811h209v-811q0 -171 91.5 -266.5t265.5 -95.5t265 95t91 267v811h203v-811q0 -257 -146.5 -406t-412.5 -149z" />
    <glyph glyph-name="V" unicode="V" horiz-adv-x="1333" 
d="M553 0l-508 1339h227l398 -1097l397 1097h221l-506 -1339h-229z" />
    <glyph glyph-name="W" unicode="W" horiz-adv-x="1904" 
d="M565 -27q-203 0 -331 126.5t-128 365.5v874h209v-874q0 -148 73.5 -223.5t193.5 -75.5t193 76.5t73 222.5v874h209v-874q0 -146 73 -222.5t193 -76.5t193 75.5t73 223.5v874h209v-874q0 -239 -128 -365.5t-331 -126.5q-132 0 -232 57.5t-155 166.5q-55 -109 -155 -166.5
t-232 -57.5z" />
    <glyph glyph-name="X" unicode="X" horiz-adv-x="1325" 
d="M39 0l483 684l-461 655h250l355 -528l356 528h244l-463 -653l483 -686h-250l-377 561l-376 -561h-244z" />
    <glyph glyph-name="Y" unicode="Y" horiz-adv-x="1331" 
d="M563 0v573l-530 766h250l385 -583l387 583h243l-526 -759v-580h-209z" />
    <glyph glyph-name="Z" unicode="Z" horiz-adv-x="1234" 
d="M88 0v184l774 963h-743v192h997v-184l-774 -962h795v-193h-1049z" />
    <glyph glyph-name="bracketleft" unicode="[" 
d="M207 403q-13 0 -19 -2v-200q4 -2 19 -2q37 0 50 25t13 77q0 54 -13 78t-50 24zM518 330v-49h-82v-78h96v-49h-155v297h155v-52h-96v-69h82zM203 150q-47 0 -74 4v292q61 9 76 9q67 0 96 -37.5t29 -116.5t-29.5 -115t-97.5 -36zM586 451h80l39 -164l38 164h82
q3 -45 13 -297h-60q0 108 -6 213l-41 -168h-55l-41 168h-2q-4 -140 -4 -213h-58q3 156 15 297zM987 150q-60 0 -84 35.5t-24 115.5q0 81 24 117.5t84 36.5t85.5 -37t25.5 -117q0 -79 -25.5 -115t-85.5 -36zM987 403q-29 0 -39 -23.5t-10 -78.5q0 -54 10 -78t39 -24
q30 0 40.5 24t10.5 78q0 55 -10 78.5t-41 23.5zM967 1016q49 0 79.5 -24.5t39 -51t8.5 -53.5q0 -43 -34.5 -72.5t-72.5 -34.5q-213 -23 -340 -147q3 8 9 22t25 53.5t39 75.5t50 80.5t59.5 76t66 53.5t71.5 22zM285 909q39 0 78 -21t69.5 -55t58.5 -74.5t48 -81.5t35 -75
t22 -55l8 -21q-117 148 -319 148q-49 0 -88 30t-39 76q0 53 33.5 91t93.5 38zM643 1214q38 -37 48.5 -102t-2.5 -131t-31.5 -126.5t-35.5 -98.5l-18 -39q20 191 -125 330q-35 35 -42 81.5t24 83.5q23 23 53 34t65 3.5t64 -35.5z" />
    <glyph glyph-name="backslash" unicode="\" 
d="M207 403q-13 0 -19 -2v-200q4 -2 19 -2q37 0 50 25t13 77q0 54 -13 78t-50 24zM518 330v-49h-82v-78h96v-49h-155v297h155v-52h-96v-69h82zM203 150q-47 0 -74 4v292q61 9 76 9q67 0 96 -37.5t29 -116.5t-29.5 -115t-97.5 -36zM586 451h80l39 -164l38 164h82
q3 -45 13 -297h-60q0 108 -6 213l-41 -168h-55l-41 168h-2q-4 -140 -4 -213h-58q3 156 15 297zM987 150q-60 0 -84 35.5t-24 115.5q0 81 24 117.5t84 36.5t85.5 -37t25.5 -117q0 -79 -25.5 -115t-85.5 -36zM987 403q-29 0 -39 -23.5t-10 -78.5q0 -54 10 -78t39 -24
q30 0 40.5 24t10.5 78q0 55 -10 78.5t-41 23.5zM967 1016q49 0 79.5 -24.5t39 -51t8.5 -53.5q0 -43 -34.5 -72.5t-72.5 -34.5q-213 -23 -340 -147q3 8 9 22t25 53.5t39 75.5t50 80.5t59.5 76t66 53.5t71.5 22zM285 909q39 0 78 -21t69.5 -55t58.5 -74.5t48 -81.5t35 -75
t22 -55l8 -21q-117 148 -319 148q-49 0 -88 30t-39 76q0 53 33.5 91t93.5 38zM643 1214q38 -37 48.5 -102t-2.5 -131t-31.5 -126.5t-35.5 -98.5l-18 -39q20 191 -125 330q-35 35 -42 81.5t24 83.5q23 23 53 34t65 3.5t64 -35.5z" />
    <glyph glyph-name="bracketright" unicode="]" 
d="M207 403q-13 0 -19 -2v-200q4 -2 19 -2q37 0 50 25t13 77q0 54 -13 78t-50 24zM518 330v-49h-82v-78h96v-49h-155v297h155v-52h-96v-69h82zM203 150q-47 0 -74 4v292q61 9 76 9q67 0 96 -37.5t29 -116.5t-29.5 -115t-97.5 -36zM586 451h80l39 -164l38 164h82
q3 -45 13 -297h-60q0 108 -6 213l-41 -168h-55l-41 168h-2q-4 -140 -4 -213h-58q3 156 15 297zM987 150q-60 0 -84 35.5t-24 115.5q0 81 24 117.5t84 36.5t85.5 -37t25.5 -117q0 -79 -25.5 -115t-85.5 -36zM987 403q-29 0 -39 -23.5t-10 -78.5q0 -54 10 -78t39 -24
q30 0 40.5 24t10.5 78q0 55 -10 78.5t-41 23.5zM967 1016q49 0 79.5 -24.5t39 -51t8.5 -53.5q0 -43 -34.5 -72.5t-72.5 -34.5q-213 -23 -340 -147q3 8 9 22t25 53.5t39 75.5t50 80.5t59.5 76t66 53.5t71.5 22zM285 909q39 0 78 -21t69.5 -55t58.5 -74.5t48 -81.5t35 -75
t22 -55l8 -21q-117 148 -319 148q-49 0 -88 30t-39 76q0 53 33.5 91t93.5 38zM643 1214q38 -37 48.5 -102t-2.5 -131t-31.5 -126.5t-35.5 -98.5l-18 -39q20 191 -125 330q-35 35 -42 81.5t24 83.5q23 23 53 34t65 3.5t64 -35.5z" />
    <glyph glyph-name="asciicircum" unicode="^" 
d="M207 403q-13 0 -19 -2v-200q4 -2 19 -2q37 0 50 25t13 77q0 54 -13 78t-50 24zM518 330v-49h-82v-78h96v-49h-155v297h155v-52h-96v-69h82zM203 150q-47 0 -74 4v292q61 9 76 9q67 0 96 -37.5t29 -116.5t-29.5 -115t-97.5 -36zM586 451h80l39 -164l38 164h82
q3 -45 13 -297h-60q0 108 -6 213l-41 -168h-55l-41 168h-2q-4 -140 -4 -213h-58q3 156 15 297zM987 150q-60 0 -84 35.5t-24 115.5q0 81 24 117.5t84 36.5t85.5 -37t25.5 -117q0 -79 -25.5 -115t-85.5 -36zM987 403q-29 0 -39 -23.5t-10 -78.5q0 -54 10 -78t39 -24
q30 0 40.5 24t10.5 78q0 55 -10 78.5t-41 23.5zM967 1016q49 0 79.5 -24.5t39 -51t8.5 -53.5q0 -43 -34.5 -72.5t-72.5 -34.5q-213 -23 -340 -147q3 8 9 22t25 53.5t39 75.5t50 80.5t59.5 76t66 53.5t71.5 22zM285 909q39 0 78 -21t69.5 -55t58.5 -74.5t48 -81.5t35 -75
t22 -55l8 -21q-117 148 -319 148q-49 0 -88 30t-39 76q0 53 33.5 91t93.5 38zM643 1214q38 -37 48.5 -102t-2.5 -131t-31.5 -126.5t-35.5 -98.5l-18 -39q20 191 -125 330q-35 35 -42 81.5t24 83.5q23 23 53 34t65 3.5t64 -35.5z" />
    <glyph glyph-name="underscore" unicode="_" 
d="M207 403q-13 0 -19 -2v-200q4 -2 19 -2q37 0 50 25t13 77q0 54 -13 78t-50 24zM518 330v-49h-82v-78h96v-49h-155v297h155v-52h-96v-69h82zM203 150q-47 0 -74 4v292q61 9 76 9q67 0 96 -37.5t29 -116.5t-29.5 -115t-97.5 -36zM586 451h80l39 -164l38 164h82
q3 -45 13 -297h-60q0 108 -6 213l-41 -168h-55l-41 168h-2q-4 -140 -4 -213h-58q3 156 15 297zM987 150q-60 0 -84 35.5t-24 115.5q0 81 24 117.5t84 36.5t85.5 -37t25.5 -117q0 -79 -25.5 -115t-85.5 -36zM987 403q-29 0 -39 -23.5t-10 -78.5q0 -54 10 -78t39 -24
q30 0 40.5 24t10.5 78q0 55 -10 78.5t-41 23.5zM967 1016q49 0 79.5 -24.5t39 -51t8.5 -53.5q0 -43 -34.5 -72.5t-72.5 -34.5q-213 -23 -340 -147q3 8 9 22t25 53.5t39 75.5t50 80.5t59.5 76t66 53.5t71.5 22zM285 909q39 0 78 -21t69.5 -55t58.5 -74.5t48 -81.5t35 -75
t22 -55l8 -21q-117 148 -319 148q-49 0 -88 30t-39 76q0 53 33.5 91t93.5 38zM643 1214q38 -37 48.5 -102t-2.5 -131t-31.5 -126.5t-35.5 -98.5l-18 -39q20 191 -125 330q-35 35 -42 81.5t24 83.5q23 23 53 34t65 3.5t64 -35.5z" />
    <glyph glyph-name="grave" unicode="`" 
d="M207 403q-13 0 -19 -2v-200q4 -2 19 -2q37 0 50 25t13 77q0 54 -13 78t-50 24zM518 330v-49h-82v-78h96v-49h-155v297h155v-52h-96v-69h82zM203 150q-47 0 -74 4v292q61 9 76 9q67 0 96 -37.5t29 -116.5t-29.5 -115t-97.5 -36zM586 451h80l39 -164l38 164h82
q3 -45 13 -297h-60q0 108 -6 213l-41 -168h-55l-41 168h-2q-4 -140 -4 -213h-58q3 156 15 297zM987 150q-60 0 -84 35.5t-24 115.5q0 81 24 117.5t84 36.5t85.5 -37t25.5 -117q0 -79 -25.5 -115t-85.5 -36zM987 403q-29 0 -39 -23.5t-10 -78.5q0 -54 10 -78t39 -24
q30 0 40.5 24t10.5 78q0 55 -10 78.5t-41 23.5zM967 1016q49 0 79.5 -24.5t39 -51t8.5 -53.5q0 -43 -34.5 -72.5t-72.5 -34.5q-213 -23 -340 -147q3 8 9 22t25 53.5t39 75.5t50 80.5t59.5 76t66 53.5t71.5 22zM285 909q39 0 78 -21t69.5 -55t58.5 -74.5t48 -81.5t35 -75
t22 -55l8 -21q-117 148 -319 148q-49 0 -88 30t-39 76q0 53 33.5 91t93.5 38zM643 1214q38 -37 48.5 -102t-2.5 -131t-31.5 -126.5t-35.5 -98.5l-18 -39q20 191 -125 330q-35 35 -42 81.5t24 83.5q23 23 53 34t65 3.5t64 -35.5z" />
    <glyph glyph-name="a" unicode="a" horiz-adv-x="1245" 
d="M573 -27q-100 0 -192 35.5t-164 101t-115 166.5t-43 222q0 238 153 389t394 151q239 0 389 -149t150 -391v-498h-178v221q-50 -120 -154.5 -184t-239.5 -64zM604 154q156 0 252 98.5t96 253.5t-96 253.5t-252 98.5t-252 -98.5t-96 -253.5t96 -253.5t252 -98.5z" />
    <glyph glyph-name="b" unicode="b" horiz-adv-x="1245" 
d="M639 -27q-238 0 -388.5 148t-150.5 393v940h195v-620q55 98 154 151t223 53q80 0 155 -22t140 -66.5t114 -106.5t77 -147.5t28 -183.5q0 -238 -153 -388.5t-394 -150.5zM641 154q156 0 252 98.5t96 253.5t-96 253.5t-252 98.5q-154 0 -250 -98.5t-96 -253.5t96 -253.5
t250 -98.5z" />
    <glyph glyph-name="c" unicode="c" horiz-adv-x="1187" 
d="M604 -27q-238 0 -391.5 151t-153.5 382t153.5 381.5t391.5 150.5q199 0 340.5 -108t181.5 -285h-196q-37 98 -123 155.5t-203 57.5q-156 0 -252 -98.5t-96 -253.5t96 -253.5t252 -98.5q117 0 203 57.5t123 155.5h196q-40 -177 -181.5 -285.5t-340.5 -108.5z" />
    <glyph glyph-name="d" unicode="d" horiz-adv-x="1245" 
d="M606 -27q-241 0 -394 150.5t-153 388.5q0 98 28 183.5t77 147.5t114 106.5t140 66.5t155 22q124 0 223 -53t154 -151v620h195v-940q0 -245 -150.5 -393t-388.5 -148zM604 154q154 0 250 98.5t96 253.5t-96 253.5t-250 98.5q-156 0 -252 -98.5t-96 -253.5t96 -253.5
t252 -98.5z" />
    <glyph glyph-name="e" unicode="e" horiz-adv-x="1204" 
d="M604 -27q-238 0 -391.5 151t-153.5 382t153.5 381.5t391.5 150.5t389.5 -150.5t151.5 -381.5v-72h-881q21 -133 113.5 -206.5t226.5 -73.5q197 0 283 129h215q-59 -143 -191 -226.5t-307 -83.5zM270 608h670q-29 119 -119.5 184.5t-216.5 65.5q-127 0 -216 -65.5
t-118 -184.5z" />
    <glyph glyph-name="f" unicode="f" horiz-adv-x="997" 
d="M133 0v1042q0 214 117.5 326.5t318.5 112.5q199 0 317 -113.5t118 -327.5h-193q0 131 -65 195.5t-177 64.5q-113 0 -177 -64.5t-64 -193.5v-170h555v-178h-555v-694h-195z" />
    <glyph glyph-name="g" unicode="g" horiz-adv-x="1245" 
d="M608 -459q-193 0 -327 84t-185 254h199q34 -85 116 -126.5t197 -41.5q344 0 344 363v116q-53 -98 -153.5 -153t-227.5 -55q-100 0 -191 34t-163 98t-115 165.5t-43 226.5q0 231 153.5 381.5t391.5 150.5q241 0 391 -148.5t150 -391.5v-416q0 -142 -41.5 -248t-115.5 -169
t-169 -93.5t-211 -30.5zM604 164q157 0 252.5 94t95.5 248q0 155 -96 253.5t-252 98.5t-252 -98.5t-96 -253.5q0 -154 95.5 -248t252.5 -94z" />
    <glyph glyph-name="h" unicode="h" horiz-adv-x="1232" 
d="M133 0v1454h195v-608q108 192 338 192q77 0 145.5 -19t127.5 -59.5t102 -100t67.5 -144.5t24.5 -189v-526h-195v526q0 161 -82 246.5t-223 85.5q-139 0 -222 -86.5t-83 -245.5v-526h-195z" />
    <glyph glyph-name="i" unicode="i" horiz-adv-x="466" 
d="M233 1171q-58 0 -96.5 39.5t-38.5 98.5t38 97t97 38t97.5 -38.5t38.5 -96.5q0 -59 -39 -98.5t-97 -39.5zM137 0v1012h195v-1012h-195z" />
    <glyph glyph-name="j" unicode="j" horiz-adv-x="466" 
d="M233 1171q-58 0 -96.5 39.5t-38.5 98.5t38 97t97 38t97.5 -38.5t38.5 -96.5q0 -59 -39 -98.5t-97 -39.5zM-57 -446v167h22q93 0 132.5 45.5t39.5 153.5v1092h195v-1080q0 -192 -82 -285t-266 -93h-41z" />
    <glyph glyph-name="k" unicode="k" horiz-adv-x="1103" 
d="M137 0v1454h195v-891l465 449h256l-529 -494l547 -518h-260l-479 471v-471h-195z" />
    <glyph glyph-name="l" unicode="l" horiz-adv-x="468" 
d="M137 0v1454h195v-1454h-195z" />
    <glyph glyph-name="m" unicode="m" horiz-adv-x="1748" 
d="M100 0v586q0 113 31.5 200.5t88.5 142t132 82t166 27.5q118 0 211 -51.5t145 -148.5q52 97 144.5 148.5t212.5 51.5q91 0 166 -27.5t132 -82t88.5 -142t31.5 -200.5v-586h-195v586q0 136 -65.5 204t-176.5 68q-107 0 -173 -69.5t-66 -202.5v-586h-195v586
q0 133 -66.5 202.5t-174.5 69.5q-111 0 -176.5 -68t-65.5 -204v-586h-195z" />
    <glyph glyph-name="n" unicode="n" horiz-adv-x="1200" 
d="M100 0v526q0 248 135 380t365 132t365 -131.5t135 -380.5v-526h-195v526q0 161 -82 246.5t-223 85.5t-223 -85.5t-82 -246.5v-526h-195z" />
    <glyph glyph-name="o" unicode="o" horiz-adv-x="1208" 
d="M604 -27q-238 0 -391.5 151t-153.5 382t153.5 381.5t391.5 150.5t391.5 -150.5t153.5 -381.5t-153.5 -382t-391.5 -151zM604 154q156 0 252 98.5t96 253.5t-96 253.5t-252 98.5t-252 -98.5t-96 -253.5t96 -253.5t252 -98.5z" />
    <glyph glyph-name="p" unicode="p" horiz-adv-x="1245" 
d="M100 -432v930q0 245 150.5 392.5t388.5 147.5q242 0 394.5 -150t152.5 -388q0 -122 -43 -223.5t-115 -166.5t-164 -101t-192 -36q-124 0 -223 53.5t-154 151.5v-610h-195zM641 154q156 0 252 98.5t96 253.5t-96 253.5t-252 98.5q-154 0 -250 -98.5t-96 -253.5t96 -253.5
t250 -98.5z" />
    <glyph glyph-name="q" unicode="q" horiz-adv-x="1245" 
d="M1145 -432h-195v610q-55 -98 -154 -151.5t-223 -53.5q-100 0 -192 36t-164 101t-115 166.5t-43 223.5q0 238 152.5 388t394.5 150q238 0 388.5 -147.5t150.5 -392.5v-930zM604 154q154 0 250 98.5t96 253.5t-96 253.5t-250 98.5q-156 0 -252 -98.5t-96 -253.5t96 -253.5
t252 -98.5z" />
    <glyph glyph-name="r" unicode="r" horiz-adv-x="1003" 
d="M100 0v596q0 218 117.5 330t319.5 112q200 0 317 -112.5t117 -331.5v-10h-193v12q0 134 -64 198t-177 64q-114 0 -178 -64t-64 -198v-596h-195z" />
    <glyph glyph-name="s" unicode="s" horiz-adv-x="966" 
d="M483 -27q-187 0 -301 89.5t-119 230.5h197q3 -65 61.5 -104t161.5 -39q106 0 165 40t59 103q0 23 -7.5 41t-26 30.5t-34.5 20.5t-49.5 15t-54 10t-62.5 8q-48 6 -78 11t-75.5 15.5t-74.5 23.5t-62.5 34.5t-53 48.5t-32.5 66.5t-13 87.5q0 150 108 241.5t289 91.5
q177 0 285 -88.5t111 -222.5h-193q-5 60 -58 97.5t-143 37.5q-94 0 -148 -39.5t-54 -101.5q0 -27 12 -47t31 -32t48.5 -20t60 -13t69.5 -10q7 -1 10 -1q37 -5 60.5 -8.5t59.5 -10.5t60 -14.5t55 -19.5t51.5 -26.5t42 -35.5t34 -45.5t20.5 -56.5t8 -70q0 -154 -114.5 -246
t-305.5 -92z" />
    <glyph glyph-name="t" unicode="t" horiz-adv-x="972" 
d="M506 -27q-187 0 -296.5 105t-109.5 305v987h195v-358h557v-178h-557v-451q0 -116 56 -172.5t155 -56.5q100 0 156.5 56t56.5 173v23h192v-23q0 -200 -109 -305t-296 -105z" />
    <glyph glyph-name="u" unicode="u" horiz-adv-x="1200" 
d="M600 -27q-230 0 -365 131t-135 379v529h195v-529q0 -161 81.5 -245t223.5 -84t223.5 84t81.5 245v529h195v-529q0 -246 -135 -378t-365 -132z" />
    <glyph glyph-name="v" unicode="v" horiz-adv-x="1157" 
d="M461 0l-422 1012h213l330 -838l329 838h207l-422 -1012h-235z" />
    <glyph glyph-name="w" unicode="w" horiz-adv-x="1748" 
d="M518 -27q-187 0 -302.5 115t-115.5 338v586h195v-586q0 -136 65.5 -204t176.5 -68q108 0 174.5 69.5t66.5 202.5v586h195v-586q0 -133 66 -202.5t173 -69.5q111 0 176.5 68t65.5 204v586h195v-586q0 -223 -115.5 -338t-302.5 -115q-119 0 -212 51.5t-145 149.5
q-52 -97 -145 -149t-211 -52z" />
    <glyph glyph-name="x" unicode="x" horiz-adv-x="1148" 
d="M33 0l399 514l-383 498h240l289 -396l288 396h234l-385 -498l401 -514h-239l-306 414l-305 -414h-233z" />
    <glyph glyph-name="y" unicode="y" horiz-adv-x="1232" 
d="M596 -459q-182 0 -313 86t-174 252h194q69 -168 293 -168q309 0 309 320v145q-47 -93 -135 -143.5t-203 -50.5q-77 0 -145.5 19t-127.5 59.5t-102 100t-67.5 144.5t-24.5 189v518h195v-518q0 -161 82 -245.5t223 -84.5q138 0 221.5 86t83.5 244v518h195v-977
q0 -128 -38.5 -225t-108.5 -154.5t-159.5 -86t-197.5 -28.5z" />
    <glyph glyph-name="z" unicode="z" horiz-adv-x="1093" 
d="M76 0v160l651 678h-621v174h881v-160l-651 -678h672v-174h-932z" />
    <glyph glyph-name="braceleft" unicode="{" 
d="M207 403q-13 0 -19 -2v-200q4 -2 19 -2q37 0 50 25t13 77q0 54 -13 78t-50 24zM518 330v-49h-82v-78h96v-49h-155v297h155v-52h-96v-69h82zM203 150q-47 0 -74 4v292q61 9 76 9q67 0 96 -37.5t29 -116.5t-29.5 -115t-97.5 -36zM586 451h80l39 -164l38 164h82
q3 -45 13 -297h-60q0 108 -6 213l-41 -168h-55l-41 168h-2q-4 -140 -4 -213h-58q3 156 15 297zM987 150q-60 0 -84 35.5t-24 115.5q0 81 24 117.5t84 36.5t85.5 -37t25.5 -117q0 -79 -25.5 -115t-85.5 -36zM987 403q-29 0 -39 -23.5t-10 -78.5q0 -54 10 -78t39 -24
q30 0 40.5 24t10.5 78q0 55 -10 78.5t-41 23.5zM967 1016q49 0 79.5 -24.5t39 -51t8.5 -53.5q0 -43 -34.5 -72.5t-72.5 -34.5q-213 -23 -340 -147q3 8 9 22t25 53.5t39 75.5t50 80.5t59.5 76t66 53.5t71.5 22zM285 909q39 0 78 -21t69.5 -55t58.5 -74.5t48 -81.5t35 -75
t22 -55l8 -21q-117 148 -319 148q-49 0 -88 30t-39 76q0 53 33.5 91t93.5 38zM643 1214q38 -37 48.5 -102t-2.5 -131t-31.5 -126.5t-35.5 -98.5l-18 -39q20 191 -125 330q-35 35 -42 81.5t24 83.5q23 23 53 34t65 3.5t64 -35.5z" />
    <glyph glyph-name="bar" unicode="|" 
d="M207 403q-13 0 -19 -2v-200q4 -2 19 -2q37 0 50 25t13 77q0 54 -13 78t-50 24zM518 330v-49h-82v-78h96v-49h-155v297h155v-52h-96v-69h82zM203 150q-47 0 -74 4v292q61 9 76 9q67 0 96 -37.5t29 -116.5t-29.5 -115t-97.5 -36zM586 451h80l39 -164l38 164h82
q3 -45 13 -297h-60q0 108 -6 213l-41 -168h-55l-41 168h-2q-4 -140 -4 -213h-58q3 156 15 297zM987 150q-60 0 -84 35.5t-24 115.5q0 81 24 117.5t84 36.5t85.5 -37t25.5 -117q0 -79 -25.5 -115t-85.5 -36zM987 403q-29 0 -39 -23.5t-10 -78.5q0 -54 10 -78t39 -24
q30 0 40.5 24t10.5 78q0 55 -10 78.5t-41 23.5zM967 1016q49 0 79.5 -24.5t39 -51t8.5 -53.5q0 -43 -34.5 -72.5t-72.5 -34.5q-213 -23 -340 -147q3 8 9 22t25 53.5t39 75.5t50 80.5t59.5 76t66 53.5t71.5 22zM285 909q39 0 78 -21t69.5 -55t58.5 -74.5t48 -81.5t35 -75
t22 -55l8 -21q-117 148 -319 148q-49 0 -88 30t-39 76q0 53 33.5 91t93.5 38zM643 1214q38 -37 48.5 -102t-2.5 -131t-31.5 -126.5t-35.5 -98.5l-18 -39q20 191 -125 330q-35 35 -42 81.5t24 83.5q23 23 53 34t65 3.5t64 -35.5z" />
    <glyph glyph-name="braceright" unicode="}" 
d="M207 403q-13 0 -19 -2v-200q4 -2 19 -2q37 0 50 25t13 77q0 54 -13 78t-50 24zM518 330v-49h-82v-78h96v-49h-155v297h155v-52h-96v-69h82zM203 150q-47 0 -74 4v292q61 9 76 9q67 0 96 -37.5t29 -116.5t-29.5 -115t-97.5 -36zM586 451h80l39 -164l38 164h82
q3 -45 13 -297h-60q0 108 -6 213l-41 -168h-55l-41 168h-2q-4 -140 -4 -213h-58q3 156 15 297zM987 150q-60 0 -84 35.5t-24 115.5q0 81 24 117.5t84 36.5t85.5 -37t25.5 -117q0 -79 -25.5 -115t-85.5 -36zM987 403q-29 0 -39 -23.5t-10 -78.5q0 -54 10 -78t39 -24
q30 0 40.5 24t10.5 78q0 55 -10 78.5t-41 23.5zM967 1016q49 0 79.5 -24.5t39 -51t8.5 -53.5q0 -43 -34.5 -72.5t-72.5 -34.5q-213 -23 -340 -147q3 8 9 22t25 53.5t39 75.5t50 80.5t59.5 76t66 53.5t71.5 22zM285 909q39 0 78 -21t69.5 -55t58.5 -74.5t48 -81.5t35 -75
t22 -55l8 -21q-117 148 -319 148q-49 0 -88 30t-39 76q0 53 33.5 91t93.5 38zM643 1214q38 -37 48.5 -102t-2.5 -131t-31.5 -126.5t-35.5 -98.5l-18 -39q20 191 -125 330q-35 35 -42 81.5t24 83.5q23 23 53 34t65 3.5t64 -35.5z" />
    <glyph glyph-name="asciitilde" unicode="~" 
d="M207 403q-13 0 -19 -2v-200q4 -2 19 -2q37 0 50 25t13 77q0 54 -13 78t-50 24zM518 330v-49h-82v-78h96v-49h-155v297h155v-52h-96v-69h82zM203 150q-47 0 -74 4v292q61 9 76 9q67 0 96 -37.5t29 -116.5t-29.5 -115t-97.5 -36zM586 451h80l39 -164l38 164h82
q3 -45 13 -297h-60q0 108 -6 213l-41 -168h-55l-41 168h-2q-4 -140 -4 -213h-58q3 156 15 297zM987 150q-60 0 -84 35.5t-24 115.5q0 81 24 117.5t84 36.5t85.5 -37t25.5 -117q0 -79 -25.5 -115t-85.5 -36zM987 403q-29 0 -39 -23.5t-10 -78.5q0 -54 10 -78t39 -24
q30 0 40.5 24t10.5 78q0 55 -10 78.5t-41 23.5zM967 1016q49 0 79.5 -24.5t39 -51t8.5 -53.5q0 -43 -34.5 -72.5t-72.5 -34.5q-213 -23 -340 -147q3 8 9 22t25 53.5t39 75.5t50 80.5t59.5 76t66 53.5t71.5 22zM285 909q39 0 78 -21t69.5 -55t58.5 -74.5t48 -81.5t35 -75
t22 -55l8 -21q-117 148 -319 148q-49 0 -88 30t-39 76q0 53 33.5 91t93.5 38zM643 1214q38 -37 48.5 -102t-2.5 -131t-31.5 -126.5t-35.5 -98.5l-18 -39q20 191 -125 330q-35 35 -42 81.5t24 83.5q23 23 53 34t65 3.5t64 -35.5z" />
    </font>
</defs>
</svg>
