<?xml version="1.0" standalone="no"?>
<!DOCTYPE svg PUBLIC "-//W3C//DTD SVG 1.1//EN" "http://www.w3.org/Graphics/SVG/1.1/DTD/svg11.dtd" >
<svg xmlns="http://www.w3.org/2000/svg" xmlns:xlink="http://www.w3.org/1999/xlink" version="1.1">
<metadata>
Created by FontForge 20201107 at Thu Dec 19 08:30:29 2024
 By 
Copyright  2019 by Ryoichi Tsunekawa. All rights reserved.
</metadata>
<defs>
<font id="FONTSPRINGDEMO-AllRoundGothicBoldRegular" horiz-adv-x="1224" >
  <font-face 
    font-family="FSP DEMO - ll Rnd Gthc Bld"
    font-weight="700"
    font-stretch="normal"
    units-per-em="2048"
    panose-1="2 11 8 3 2 2 2 2 1 4"
    ascent="1536"
    descent="-512"
    x-height="1012"
    cap-height="1339"
    bbox="-8 -459 1806 1497"
    underline-thickness="102"
    underline-position="-307"
    unicode-range="U+0020-007E"
  />
<missing-glyph 
d="M207 403q-13 0 -19 -2v-200q4 -2 19 -2q37 0 50 25t13 77q0 54 -13 78t-50 24zM518 330v-49h-82v-78h96v-49h-155v297h155v-52h-96v-69h82zM203 150q-47 0 -74 4v292q61 9 76 9q67 0 96 -37.5t29 -116.5t-29.5 -115t-97.5 -36zM586 451h80l39 -164l38 164h82
q3 -45 13 -297h-60q0 108 -6 213l-41 -168h-55l-41 168h-2q-4 -140 -4 -213h-58q3 156 15 297zM987 150q-60 0 -84 35.5t-24 115.5q0 81 24 117.5t84 36.5t85.5 -37t25.5 -117q0 -79 -25.5 -115t-85.5 -36zM987 403q-29 0 -39 -23.5t-10 -78.5q0 -54 10 -78t39 -24
q30 0 40.5 24t10.5 78q0 55 -10 78.5t-41 23.5zM967 1016q49 0 79.5 -24.5t39 -51t8.5 -53.5q0 -43 -34.5 -72.5t-72.5 -34.5q-213 -23 -340 -147q3 8 9 22t25 53.5t39 75.5t50 80.5t59.5 76t66 53.5t71.5 22zM285 909q39 0 78 -21t69.5 -55t58.5 -74.5t48 -81.5t35 -75
t22 -55l8 -21q-117 148 -319 148q-49 0 -88 30t-39 76q0 53 33.5 91t93.5 38zM643 1214q38 -37 48.5 -102t-2.5 -131t-31.5 -126.5t-35.5 -98.5l-18 -39q20 191 -125 330q-35 35 -42 81.5t24 83.5q23 23 53 34t65 3.5t64 -35.5z" />
    <glyph glyph-name=".notdef" 
d="M207 403q-13 0 -19 -2v-200q4 -2 19 -2q37 0 50 25t13 77q0 54 -13 78t-50 24zM518 330v-49h-82v-78h96v-49h-155v297h155v-52h-96v-69h82zM203 150q-47 0 -74 4v292q61 9 76 9q67 0 96 -37.5t29 -116.5t-29.5 -115t-97.5 -36zM586 451h80l39 -164l38 164h82
q3 -45 13 -297h-60q0 108 -6 213l-41 -168h-55l-41 168h-2q-4 -140 -4 -213h-58q3 156 15 297zM987 150q-60 0 -84 35.5t-24 115.5q0 81 24 117.5t84 36.5t85.5 -37t25.5 -117q0 -79 -25.5 -115t-85.5 -36zM987 403q-29 0 -39 -23.5t-10 -78.5q0 -54 10 -78t39 -24
q30 0 40.5 24t10.5 78q0 55 -10 78.5t-41 23.5zM967 1016q49 0 79.5 -24.5t39 -51t8.5 -53.5q0 -43 -34.5 -72.5t-72.5 -34.5q-213 -23 -340 -147q3 8 9 22t25 53.5t39 75.5t50 80.5t59.5 76t66 53.5t71.5 22zM285 909q39 0 78 -21t69.5 -55t58.5 -74.5t48 -81.5t35 -75
t22 -55l8 -21q-117 148 -319 148q-49 0 -88 30t-39 76q0 53 33.5 91t93.5 38zM643 1214q38 -37 48.5 -102t-2.5 -131t-31.5 -126.5t-35.5 -98.5l-18 -39q20 191 -125 330q-35 35 -42 81.5t24 83.5q23 23 53 34t65 3.5t64 -35.5z" />
    <glyph glyph-name=".null" horiz-adv-x="0" 
 />
    <glyph glyph-name="nonmarkingreturn" horiz-adv-x="682" 
 />
    <glyph glyph-name="space" unicode=" " horiz-adv-x="544" 
 />
    <glyph glyph-name="exclam" unicode="!" 
d="M207 403q-13 0 -19 -2v-200q4 -2 19 -2q37 0 50 25t13 77q0 54 -13 78t-50 24zM518 330v-49h-82v-78h96v-49h-155v297h155v-52h-96v-69h82zM203 150q-47 0 -74 4v292q61 9 76 9q67 0 96 -37.5t29 -116.5t-29.5 -115t-97.5 -36zM586 451h80l39 -164l38 164h82
q3 -45 13 -297h-60q0 108 -6 213l-41 -168h-55l-41 168h-2q-4 -140 -4 -213h-58q3 156 15 297zM987 150q-60 0 -84 35.5t-24 115.5q0 81 24 117.5t84 36.5t85.5 -37t25.5 -117q0 -79 -25.5 -115t-85.5 -36zM987 403q-29 0 -39 -23.5t-10 -78.5q0 -54 10 -78t39 -24
q30 0 40.5 24t10.5 78q0 55 -10 78.5t-41 23.5zM967 1016q49 0 79.5 -24.5t39 -51t8.5 -53.5q0 -43 -34.5 -72.5t-72.5 -34.5q-213 -23 -340 -147q3 8 9 22t25 53.5t39 75.5t50 80.5t59.5 76t66 53.5t71.5 22zM285 909q39 0 78 -21t69.5 -55t58.5 -74.5t48 -81.5t35 -75
t22 -55l8 -21q-117 148 -319 148q-49 0 -88 30t-39 76q0 53 33.5 91t93.5 38zM643 1214q38 -37 48.5 -102t-2.5 -131t-31.5 -126.5t-35.5 -98.5l-18 -39q20 191 -125 330q-35 35 -42 81.5t24 83.5q23 23 53 34t65 3.5t64 -35.5z" />
    <glyph glyph-name="quotedbl" unicode="&#x22;" 
d="M207 403q-13 0 -19 -2v-200q4 -2 19 -2q37 0 50 25t13 77q0 54 -13 78t-50 24zM518 330v-49h-82v-78h96v-49h-155v297h155v-52h-96v-69h82zM203 150q-47 0 -74 4v292q61 9 76 9q67 0 96 -37.5t29 -116.5t-29.5 -115t-97.5 -36zM586 451h80l39 -164l38 164h82
q3 -45 13 -297h-60q0 108 -6 213l-41 -168h-55l-41 168h-2q-4 -140 -4 -213h-58q3 156 15 297zM987 150q-60 0 -84 35.5t-24 115.5q0 81 24 117.5t84 36.5t85.5 -37t25.5 -117q0 -79 -25.5 -115t-85.5 -36zM987 403q-29 0 -39 -23.5t-10 -78.5q0 -54 10 -78t39 -24
q30 0 40.5 24t10.5 78q0 55 -10 78.5t-41 23.5zM967 1016q49 0 79.5 -24.5t39 -51t8.5 -53.5q0 -43 -34.5 -72.5t-72.5 -34.5q-213 -23 -340 -147q3 8 9 22t25 53.5t39 75.5t50 80.5t59.5 76t66 53.5t71.5 22zM285 909q39 0 78 -21t69.5 -55t58.5 -74.5t48 -81.5t35 -75
t22 -55l8 -21q-117 148 -319 148q-49 0 -88 30t-39 76q0 53 33.5 91t93.5 38zM643 1214q38 -37 48.5 -102t-2.5 -131t-31.5 -126.5t-35.5 -98.5l-18 -39q20 191 -125 330q-35 35 -42 81.5t24 83.5q23 23 53 34t65 3.5t64 -35.5z" />
    <glyph glyph-name="numbersign" unicode="#" 
d="M207 403q-13 0 -19 -2v-200q4 -2 19 -2q37 0 50 25t13 77q0 54 -13 78t-50 24zM518 330v-49h-82v-78h96v-49h-155v297h155v-52h-96v-69h82zM203 150q-47 0 -74 4v292q61 9 76 9q67 0 96 -37.5t29 -116.5t-29.5 -115t-97.5 -36zM586 451h80l39 -164l38 164h82
q3 -45 13 -297h-60q0 108 -6 213l-41 -168h-55l-41 168h-2q-4 -140 -4 -213h-58q3 156 15 297zM987 150q-60 0 -84 35.5t-24 115.5q0 81 24 117.5t84 36.5t85.5 -37t25.5 -117q0 -79 -25.5 -115t-85.5 -36zM987 403q-29 0 -39 -23.5t-10 -78.5q0 -54 10 -78t39 -24
q30 0 40.5 24t10.5 78q0 55 -10 78.5t-41 23.5zM967 1016q49 0 79.5 -24.5t39 -51t8.5 -53.5q0 -43 -34.5 -72.5t-72.5 -34.5q-213 -23 -340 -147q3 8 9 22t25 53.5t39 75.5t50 80.5t59.5 76t66 53.5t71.5 22zM285 909q39 0 78 -21t69.5 -55t58.5 -74.5t48 -81.5t35 -75
t22 -55l8 -21q-117 148 -319 148q-49 0 -88 30t-39 76q0 53 33.5 91t93.5 38zM643 1214q38 -37 48.5 -102t-2.5 -131t-31.5 -126.5t-35.5 -98.5l-18 -39q20 191 -125 330q-35 35 -42 81.5t24 83.5q23 23 53 34t65 3.5t64 -35.5z" />
    <glyph glyph-name="dollar" unicode="$" 
d="M207 403q-13 0 -19 -2v-200q4 -2 19 -2q37 0 50 25t13 77q0 54 -13 78t-50 24zM518 330v-49h-82v-78h96v-49h-155v297h155v-52h-96v-69h82zM203 150q-47 0 -74 4v292q61 9 76 9q67 0 96 -37.5t29 -116.5t-29.5 -115t-97.5 -36zM586 451h80l39 -164l38 164h82
q3 -45 13 -297h-60q0 108 -6 213l-41 -168h-55l-41 168h-2q-4 -140 -4 -213h-58q3 156 15 297zM987 150q-60 0 -84 35.5t-24 115.5q0 81 24 117.5t84 36.5t85.5 -37t25.5 -117q0 -79 -25.5 -115t-85.5 -36zM987 403q-29 0 -39 -23.5t-10 -78.5q0 -54 10 -78t39 -24
q30 0 40.5 24t10.5 78q0 55 -10 78.5t-41 23.5zM967 1016q49 0 79.5 -24.5t39 -51t8.5 -53.5q0 -43 -34.5 -72.5t-72.5 -34.5q-213 -23 -340 -147q3 8 9 22t25 53.5t39 75.5t50 80.5t59.5 76t66 53.5t71.5 22zM285 909q39 0 78 -21t69.5 -55t58.5 -74.5t48 -81.5t35 -75
t22 -55l8 -21q-117 148 -319 148q-49 0 -88 30t-39 76q0 53 33.5 91t93.5 38zM643 1214q38 -37 48.5 -102t-2.5 -131t-31.5 -126.5t-35.5 -98.5l-18 -39q20 191 -125 330q-35 35 -42 81.5t24 83.5q23 23 53 34t65 3.5t64 -35.5z" />
    <glyph glyph-name="percent" unicode="%" 
d="M207 403q-13 0 -19 -2v-200q4 -2 19 -2q37 0 50 25t13 77q0 54 -13 78t-50 24zM518 330v-49h-82v-78h96v-49h-155v297h155v-52h-96v-69h82zM203 150q-47 0 -74 4v292q61 9 76 9q67 0 96 -37.5t29 -116.5t-29.5 -115t-97.5 -36zM586 451h80l39 -164l38 164h82
q3 -45 13 -297h-60q0 108 -6 213l-41 -168h-55l-41 168h-2q-4 -140 -4 -213h-58q3 156 15 297zM987 150q-60 0 -84 35.5t-24 115.5q0 81 24 117.5t84 36.5t85.5 -37t25.5 -117q0 -79 -25.5 -115t-85.5 -36zM987 403q-29 0 -39 -23.5t-10 -78.5q0 -54 10 -78t39 -24
q30 0 40.5 24t10.5 78q0 55 -10 78.5t-41 23.5zM967 1016q49 0 79.5 -24.5t39 -51t8.5 -53.5q0 -43 -34.5 -72.5t-72.5 -34.5q-213 -23 -340 -147q3 8 9 22t25 53.5t39 75.5t50 80.5t59.5 76t66 53.5t71.5 22zM285 909q39 0 78 -21t69.5 -55t58.5 -74.5t48 -81.5t35 -75
t22 -55l8 -21q-117 148 -319 148q-49 0 -88 30t-39 76q0 53 33.5 91t93.5 38zM643 1214q38 -37 48.5 -102t-2.5 -131t-31.5 -126.5t-35.5 -98.5l-18 -39q20 191 -125 330q-35 35 -42 81.5t24 83.5q23 23 53 34t65 3.5t64 -35.5z" />
    <glyph glyph-name="ampersand" unicode="&#x26;" 
d="M207 403q-13 0 -19 -2v-200q4 -2 19 -2q37 0 50 25t13 77q0 54 -13 78t-50 24zM518 330v-49h-82v-78h96v-49h-155v297h155v-52h-96v-69h82zM203 150q-47 0 -74 4v292q61 9 76 9q67 0 96 -37.5t29 -116.5t-29.5 -115t-97.5 -36zM586 451h80l39 -164l38 164h82
q3 -45 13 -297h-60q0 108 -6 213l-41 -168h-55l-41 168h-2q-4 -140 -4 -213h-58q3 156 15 297zM987 150q-60 0 -84 35.5t-24 115.5q0 81 24 117.5t84 36.5t85.5 -37t25.5 -117q0 -79 -25.5 -115t-85.5 -36zM987 403q-29 0 -39 -23.5t-10 -78.5q0 -54 10 -78t39 -24
q30 0 40.5 24t10.5 78q0 55 -10 78.5t-41 23.5zM967 1016q49 0 79.5 -24.5t39 -51t8.5 -53.5q0 -43 -34.5 -72.5t-72.5 -34.5q-213 -23 -340 -147q3 8 9 22t25 53.5t39 75.5t50 80.5t59.5 76t66 53.5t71.5 22zM285 909q39 0 78 -21t69.5 -55t58.5 -74.5t48 -81.5t35 -75
t22 -55l8 -21q-117 148 -319 148q-49 0 -88 30t-39 76q0 53 33.5 91t93.5 38zM643 1214q38 -37 48.5 -102t-2.5 -131t-31.5 -126.5t-35.5 -98.5l-18 -39q20 191 -125 330q-35 35 -42 81.5t24 83.5q23 23 53 34t65 3.5t64 -35.5z" />
    <glyph glyph-name="quotesingle" unicode="'" 
d="M207 403q-13 0 -19 -2v-200q4 -2 19 -2q37 0 50 25t13 77q0 54 -13 78t-50 24zM518 330v-49h-82v-78h96v-49h-155v297h155v-52h-96v-69h82zM203 150q-47 0 -74 4v292q61 9 76 9q67 0 96 -37.5t29 -116.5t-29.5 -115t-97.5 -36zM586 451h80l39 -164l38 164h82
q3 -45 13 -297h-60q0 108 -6 213l-41 -168h-55l-41 168h-2q-4 -140 -4 -213h-58q3 156 15 297zM987 150q-60 0 -84 35.5t-24 115.5q0 81 24 117.5t84 36.5t85.5 -37t25.5 -117q0 -79 -25.5 -115t-85.5 -36zM987 403q-29 0 -39 -23.5t-10 -78.5q0 -54 10 -78t39 -24
q30 0 40.5 24t10.5 78q0 55 -10 78.5t-41 23.5zM967 1016q49 0 79.5 -24.5t39 -51t8.5 -53.5q0 -43 -34.5 -72.5t-72.5 -34.5q-213 -23 -340 -147q3 8 9 22t25 53.5t39 75.5t50 80.5t59.5 76t66 53.5t71.5 22zM285 909q39 0 78 -21t69.5 -55t58.5 -74.5t48 -81.5t35 -75
t22 -55l8 -21q-117 148 -319 148q-49 0 -88 30t-39 76q0 53 33.5 91t93.5 38zM643 1214q38 -37 48.5 -102t-2.5 -131t-31.5 -126.5t-35.5 -98.5l-18 -39q20 191 -125 330q-35 35 -42 81.5t24 83.5q23 23 53 34t65 3.5t64 -35.5z" />
    <glyph glyph-name="parenleft" unicode="(" 
d="M207 403q-13 0 -19 -2v-200q4 -2 19 -2q37 0 50 25t13 77q0 54 -13 78t-50 24zM518 330v-49h-82v-78h96v-49h-155v297h155v-52h-96v-69h82zM203 150q-47 0 -74 4v292q61 9 76 9q67 0 96 -37.5t29 -116.5t-29.5 -115t-97.5 -36zM586 451h80l39 -164l38 164h82
q3 -45 13 -297h-60q0 108 -6 213l-41 -168h-55l-41 168h-2q-4 -140 -4 -213h-58q3 156 15 297zM987 150q-60 0 -84 35.5t-24 115.5q0 81 24 117.5t84 36.5t85.5 -37t25.5 -117q0 -79 -25.5 -115t-85.5 -36zM987 403q-29 0 -39 -23.5t-10 -78.5q0 -54 10 -78t39 -24
q30 0 40.5 24t10.5 78q0 55 -10 78.5t-41 23.5zM967 1016q49 0 79.5 -24.5t39 -51t8.5 -53.5q0 -43 -34.5 -72.5t-72.5 -34.5q-213 -23 -340 -147q3 8 9 22t25 53.5t39 75.5t50 80.5t59.5 76t66 53.5t71.5 22zM285 909q39 0 78 -21t69.5 -55t58.5 -74.5t48 -81.5t35 -75
t22 -55l8 -21q-117 148 -319 148q-49 0 -88 30t-39 76q0 53 33.5 91t93.5 38zM643 1214q38 -37 48.5 -102t-2.5 -131t-31.5 -126.5t-35.5 -98.5l-18 -39q20 191 -125 330q-35 35 -42 81.5t24 83.5q23 23 53 34t65 3.5t64 -35.5z" />
    <glyph glyph-name="parenright" unicode=")" 
d="M207 403q-13 0 -19 -2v-200q4 -2 19 -2q37 0 50 25t13 77q0 54 -13 78t-50 24zM518 330v-49h-82v-78h96v-49h-155v297h155v-52h-96v-69h82zM203 150q-47 0 -74 4v292q61 9 76 9q67 0 96 -37.5t29 -116.5t-29.5 -115t-97.5 -36zM586 451h80l39 -164l38 164h82
q3 -45 13 -297h-60q0 108 -6 213l-41 -168h-55l-41 168h-2q-4 -140 -4 -213h-58q3 156 15 297zM987 150q-60 0 -84 35.5t-24 115.5q0 81 24 117.5t84 36.5t85.5 -37t25.5 -117q0 -79 -25.5 -115t-85.5 -36zM987 403q-29 0 -39 -23.5t-10 -78.5q0 -54 10 -78t39 -24
q30 0 40.5 24t10.5 78q0 55 -10 78.5t-41 23.5zM967 1016q49 0 79.5 -24.5t39 -51t8.5 -53.5q0 -43 -34.5 -72.5t-72.5 -34.5q-213 -23 -340 -147q3 8 9 22t25 53.5t39 75.5t50 80.5t59.5 76t66 53.5t71.5 22zM285 909q39 0 78 -21t69.5 -55t58.5 -74.5t48 -81.5t35 -75
t22 -55l8 -21q-117 148 -319 148q-49 0 -88 30t-39 76q0 53 33.5 91t93.5 38zM643 1214q38 -37 48.5 -102t-2.5 -131t-31.5 -126.5t-35.5 -98.5l-18 -39q20 191 -125 330q-35 35 -42 81.5t24 83.5q23 23 53 34t65 3.5t64 -35.5z" />
    <glyph glyph-name="asterisk" unicode="*" 
d="M207 403q-13 0 -19 -2v-200q4 -2 19 -2q37 0 50 25t13 77q0 54 -13 78t-50 24zM518 330v-49h-82v-78h96v-49h-155v297h155v-52h-96v-69h82zM203 150q-47 0 -74 4v292q61 9 76 9q67 0 96 -37.5t29 -116.5t-29.5 -115t-97.5 -36zM586 451h80l39 -164l38 164h82
q3 -45 13 -297h-60q0 108 -6 213l-41 -168h-55l-41 168h-2q-4 -140 -4 -213h-58q3 156 15 297zM987 150q-60 0 -84 35.5t-24 115.5q0 81 24 117.5t84 36.5t85.5 -37t25.5 -117q0 -79 -25.5 -115t-85.5 -36zM987 403q-29 0 -39 -23.5t-10 -78.5q0 -54 10 -78t39 -24
q30 0 40.5 24t10.5 78q0 55 -10 78.5t-41 23.5zM967 1016q49 0 79.5 -24.5t39 -51t8.5 -53.5q0 -43 -34.5 -72.5t-72.5 -34.5q-213 -23 -340 -147q3 8 9 22t25 53.5t39 75.5t50 80.5t59.5 76t66 53.5t71.5 22zM285 909q39 0 78 -21t69.5 -55t58.5 -74.5t48 -81.5t35 -75
t22 -55l8 -21q-117 148 -319 148q-49 0 -88 30t-39 76q0 53 33.5 91t93.5 38zM643 1214q38 -37 48.5 -102t-2.5 -131t-31.5 -126.5t-35.5 -98.5l-18 -39q20 191 -125 330q-35 35 -42 81.5t24 83.5q23 23 53 34t65 3.5t64 -35.5z" />
    <glyph glyph-name="plus" unicode="+" 
d="M207 403q-13 0 -19 -2v-200q4 -2 19 -2q37 0 50 25t13 77q0 54 -13 78t-50 24zM518 330v-49h-82v-78h96v-49h-155v297h155v-52h-96v-69h82zM203 150q-47 0 -74 4v292q61 9 76 9q67 0 96 -37.5t29 -116.5t-29.5 -115t-97.5 -36zM586 451h80l39 -164l38 164h82
q3 -45 13 -297h-60q0 108 -6 213l-41 -168h-55l-41 168h-2q-4 -140 -4 -213h-58q3 156 15 297zM987 150q-60 0 -84 35.5t-24 115.5q0 81 24 117.5t84 36.5t85.5 -37t25.5 -117q0 -79 -25.5 -115t-85.5 -36zM987 403q-29 0 -39 -23.5t-10 -78.5q0 -54 10 -78t39 -24
q30 0 40.5 24t10.5 78q0 55 -10 78.5t-41 23.5zM967 1016q49 0 79.5 -24.5t39 -51t8.5 -53.5q0 -43 -34.5 -72.5t-72.5 -34.5q-213 -23 -340 -147q3 8 9 22t25 53.5t39 75.5t50 80.5t59.5 76t66 53.5t71.5 22zM285 909q39 0 78 -21t69.5 -55t58.5 -74.5t48 -81.5t35 -75
t22 -55l8 -21q-117 148 -319 148q-49 0 -88 30t-39 76q0 53 33.5 91t93.5 38zM643 1214q38 -37 48.5 -102t-2.5 -131t-31.5 -126.5t-35.5 -98.5l-18 -39q20 191 -125 330q-35 35 -42 81.5t24 83.5q23 23 53 34t65 3.5t64 -35.5z" />
    <glyph glyph-name="comma" unicode="," horiz-adv-x="544" 
d="M94 -295l96 287q-50 21 -82 70t-32 108q0 86 55 141.5t141 55.5t141.5 -55.5t55.5 -141.5q0 -48 -27 -104l-170 -361h-178z" />
    <glyph glyph-name="hyphen" unicode="-" 
d="M207 403q-13 0 -19 -2v-200q4 -2 19 -2q37 0 50 25t13 77q0 54 -13 78t-50 24zM518 330v-49h-82v-78h96v-49h-155v297h155v-52h-96v-69h82zM203 150q-47 0 -74 4v292q61 9 76 9q67 0 96 -37.5t29 -116.5t-29.5 -115t-97.5 -36zM586 451h80l39 -164l38 164h82
q3 -45 13 -297h-60q0 108 -6 213l-41 -168h-55l-41 168h-2q-4 -140 -4 -213h-58q3 156 15 297zM987 150q-60 0 -84 35.5t-24 115.5q0 81 24 117.5t84 36.5t85.5 -37t25.5 -117q0 -79 -25.5 -115t-85.5 -36zM987 403q-29 0 -39 -23.5t-10 -78.5q0 -54 10 -78t39 -24
q30 0 40.5 24t10.5 78q0 55 -10 78.5t-41 23.5zM967 1016q49 0 79.5 -24.5t39 -51t8.5 -53.5q0 -43 -34.5 -72.5t-72.5 -34.5q-213 -23 -340 -147q3 8 9 22t25 53.5t39 75.5t50 80.5t59.5 76t66 53.5t71.5 22zM285 909q39 0 78 -21t69.5 -55t58.5 -74.5t48 -81.5t35 -75
t22 -55l8 -21q-117 148 -319 148q-49 0 -88 30t-39 76q0 53 33.5 91t93.5 38zM643 1214q38 -37 48.5 -102t-2.5 -131t-31.5 -126.5t-35.5 -98.5l-18 -39q20 191 -125 330q-35 35 -42 81.5t24 83.5q23 23 53 34t65 3.5t64 -35.5z" />
    <glyph glyph-name="period" unicode="." horiz-adv-x="544" 
d="M272 -27q-85 0 -140.5 56t-55.5 141t55.5 141t140.5 56t141 -56t56 -141t-56 -141t-141 -56z" />
    <glyph glyph-name="slash" unicode="/" 
d="M207 403q-13 0 -19 -2v-200q4 -2 19 -2q37 0 50 25t13 77q0 54 -13 78t-50 24zM518 330v-49h-82v-78h96v-49h-155v297h155v-52h-96v-69h82zM203 150q-47 0 -74 4v292q61 9 76 9q67 0 96 -37.5t29 -116.5t-29.5 -115t-97.5 -36zM586 451h80l39 -164l38 164h82
q3 -45 13 -297h-60q0 108 -6 213l-41 -168h-55l-41 168h-2q-4 -140 -4 -213h-58q3 156 15 297zM987 150q-60 0 -84 35.5t-24 115.5q0 81 24 117.5t84 36.5t85.5 -37t25.5 -117q0 -79 -25.5 -115t-85.5 -36zM987 403q-29 0 -39 -23.5t-10 -78.5q0 -54 10 -78t39 -24
q30 0 40.5 24t10.5 78q0 55 -10 78.5t-41 23.5zM967 1016q49 0 79.5 -24.5t39 -51t8.5 -53.5q0 -43 -34.5 -72.5t-72.5 -34.5q-213 -23 -340 -147q3 8 9 22t25 53.5t39 75.5t50 80.5t59.5 76t66 53.5t71.5 22zM285 909q39 0 78 -21t69.5 -55t58.5 -74.5t48 -81.5t35 -75
t22 -55l8 -21q-117 148 -319 148q-49 0 -88 30t-39 76q0 53 33.5 91t93.5 38zM643 1214q38 -37 48.5 -102t-2.5 -131t-31.5 -126.5t-35.5 -98.5l-18 -39q20 191 -125 330q-35 35 -42 81.5t24 83.5q23 23 53 34t65 3.5t64 -35.5z" />
    <glyph glyph-name="zero" unicode="0" horiz-adv-x="1134" 
d="M567 -27q-213 0 -346 132.5t-133 349.5v430q0 217 133 349t346 132q214 0 347 -132t133 -349v-430q0 -217 -133.5 -349.5t-346.5 -132.5zM567 260q83 0 127.5 51t44.5 144v430q0 93 -44.5 143.5t-127.5 50.5t-127.5 -50.5t-44.5 -143.5v-430q0 -93 44.5 -144t127.5 -51z
" />
    <glyph glyph-name="one" unicode="1" horiz-adv-x="720" 
d="M297 0v1063h-234v276h541v-1339h-307z" />
    <glyph glyph-name="two" unicode="2" horiz-adv-x="1017" 
d="M74 0v266l424 432q131 131 131 230q0 69 -30.5 110t-92.5 41q-61 0 -92 -41t-31 -112v-29h-307v18q0 207 116 329t316 122q197 0 314.5 -123t117.5 -317q0 -82 -27 -153.5t-69.5 -126.5t-114.5 -126l-250 -244h445v-276h-850z" />
    <glyph glyph-name="three" unicode="3" horiz-adv-x="1060" 
d="M524 -27q-208 0 -336.5 113.5t-128.5 319.5h299q0 -68 43.5 -107t118.5 -39t118.5 40t43.5 108q0 163 -197 163h-145v267h145q85 0 119.5 31.5t34.5 91.5q0 53 -31.5 85.5t-87.5 32.5q-54 0 -85 -30.5t-34 -87.5h-299q1 196 115 300.5t307 104.5q194 0 310 -103t116 -276
q0 -197 -153 -276v-4q196 -84 196 -316q0 -192 -130 -305t-339 -113z" />
    <glyph glyph-name="four" unicode="4" 
d="M207 403q-13 0 -19 -2v-200q4 -2 19 -2q37 0 50 25t13 77q0 54 -13 78t-50 24zM518 330v-49h-82v-78h96v-49h-155v297h155v-52h-96v-69h82zM203 150q-47 0 -74 4v292q61 9 76 9q67 0 96 -37.5t29 -116.5t-29.5 -115t-97.5 -36zM586 451h80l39 -164l38 164h82
q3 -45 13 -297h-60q0 108 -6 213l-41 -168h-55l-41 168h-2q-4 -140 -4 -213h-58q3 156 15 297zM987 150q-60 0 -84 35.5t-24 115.5q0 81 24 117.5t84 36.5t85.5 -37t25.5 -117q0 -79 -25.5 -115t-85.5 -36zM987 403q-29 0 -39 -23.5t-10 -78.5q0 -54 10 -78t39 -24
q30 0 40.5 24t10.5 78q0 55 -10 78.5t-41 23.5zM967 1016q49 0 79.5 -24.5t39 -51t8.5 -53.5q0 -43 -34.5 -72.5t-72.5 -34.5q-213 -23 -340 -147q3 8 9 22t25 53.5t39 75.5t50 80.5t59.5 76t66 53.5t71.5 22zM285 909q39 0 78 -21t69.5 -55t58.5 -74.5t48 -81.5t35 -75
t22 -55l8 -21q-117 148 -319 148q-49 0 -88 30t-39 76q0 53 33.5 91t93.5 38zM643 1214q38 -37 48.5 -102t-2.5 -131t-31.5 -126.5t-35.5 -98.5l-18 -39q20 191 -125 330q-35 35 -42 81.5t24 83.5q23 23 53 34t65 3.5t64 -35.5z" />
    <glyph glyph-name="five" unicode="5" horiz-adv-x="1081" 
d="M537 -27q-199 0 -332.5 118.5t-147.5 305.5h316q12 -62 55 -99.5t109 -37.5q80 0 124 52.5t44 148.5q0 83 -44.5 131.5t-123.5 48.5q-109 0 -154 -98l-274 84l94 712h712v-276h-475l-37 -246q71 86 205 86q81 0 154.5 -31t130 -87t90 -140t33.5 -184q0 -220 -133 -354
t-346 -134z" />
    <glyph glyph-name="six" unicode="6" horiz-adv-x="1091" 
d="M547 -27q-213 0 -346 134.5t-133 353.5q0 80 22 159t44.5 124t58.5 106l290 489h340l-278 -446q52 22 104 22q108 0 195 -63.5t134.5 -168.5t47.5 -230q0 -212 -133.5 -346t-345.5 -134zM547 260q80 0 124 53t44 148q0 90 -44.5 142t-123.5 52t-123.5 -52t-44.5 -142
q0 -95 44 -148t124 -53z" />
    <glyph glyph-name="seven" unicode="7" horiz-adv-x="1005" 
d="M102 0l508 1063h-547v276h879v-266l-506 -1073h-334z" />
    <glyph glyph-name="eight" unicode="8" horiz-adv-x="1093" 
d="M547 -27q-216 0 -347.5 112.5t-131.5 299.5q0 116 53.5 197t154.5 123v4q-165 80 -165 282q0 169 118.5 272t317.5 103t317.5 -103t118.5 -272q0 -199 -166 -282v-4q101 -42 155 -123t54 -197q0 -187 -131.5 -299.5t-347.5 -112.5zM545 834h4q63 0 96 35t33 92
q0 58 -33.5 92t-97.5 34t-97.5 -34t-33.5 -92q0 -57 33 -92t96 -35zM547 254q85 0 129.5 42t44.5 120t-44.5 120t-127.5 42h-4q-83 0 -127.5 -42t-44.5 -120t44.5 -120t129.5 -42z" />
    <glyph glyph-name="nine" unicode="9" horiz-adv-x="1091" 
d="M268 0l279 446q-52 -22 -105 -22q-108 0 -194.5 63.5t-134 169t-47.5 230.5q0 212 133.5 345.5t345.5 133.5q213 0 346 -134t133 -353q0 -80 -22 -159.5t-44.5 -125t-58.5 -105.5l-291 -489h-340zM545 684q79 0 123.5 52.5t44.5 142.5q0 95 -44 147.5t-124 52.5
t-124 -52.5t-44 -147.5q0 -90 44.5 -142.5t123.5 -52.5z" />
    <glyph glyph-name="colon" unicode=":" horiz-adv-x="544" 
d="M272 621q-85 0 -140.5 55.5t-55.5 140.5t55.5 141t140.5 56t141 -56t56 -141t-56 -140.5t-141 -55.5zM272 -27q-85 0 -140.5 56t-55.5 141t55.5 141t140.5 56t141 -56t56 -141t-56 -141t-141 -56z" />
    <glyph glyph-name="semicolon" unicode=";" horiz-adv-x="544" 
d="M272 621q-85 0 -140.5 55.5t-55.5 140.5t55.5 141t140.5 56t141 -56t56 -141t-56 -140.5t-141 -55.5zM94 -295l96 287q-50 21 -82 70t-32 108q0 86 55 141.5t141 55.5t141.5 -55.5t55.5 -141.5q0 -48 -27 -104l-170 -361h-178z" />
    <glyph glyph-name="less" unicode="&#x3c;" 
d="M207 403q-13 0 -19 -2v-200q4 -2 19 -2q37 0 50 25t13 77q0 54 -13 78t-50 24zM518 330v-49h-82v-78h96v-49h-155v297h155v-52h-96v-69h82zM203 150q-47 0 -74 4v292q61 9 76 9q67 0 96 -37.5t29 -116.5t-29.5 -115t-97.5 -36zM586 451h80l39 -164l38 164h82
q3 -45 13 -297h-60q0 108 -6 213l-41 -168h-55l-41 168h-2q-4 -140 -4 -213h-58q3 156 15 297zM987 150q-60 0 -84 35.5t-24 115.5q0 81 24 117.5t84 36.5t85.5 -37t25.5 -117q0 -79 -25.5 -115t-85.5 -36zM987 403q-29 0 -39 -23.5t-10 -78.5q0 -54 10 -78t39 -24
q30 0 40.5 24t10.5 78q0 55 -10 78.5t-41 23.5zM967 1016q49 0 79.5 -24.5t39 -51t8.5 -53.5q0 -43 -34.5 -72.5t-72.5 -34.5q-213 -23 -340 -147q3 8 9 22t25 53.5t39 75.5t50 80.5t59.5 76t66 53.5t71.5 22zM285 909q39 0 78 -21t69.5 -55t58.5 -74.5t48 -81.5t35 -75
t22 -55l8 -21q-117 148 -319 148q-49 0 -88 30t-39 76q0 53 33.5 91t93.5 38zM643 1214q38 -37 48.5 -102t-2.5 -131t-31.5 -126.5t-35.5 -98.5l-18 -39q20 191 -125 330q-35 35 -42 81.5t24 83.5q23 23 53 34t65 3.5t64 -35.5z" />
    <glyph glyph-name="equal" unicode="=" 
d="M207 403q-13 0 -19 -2v-200q4 -2 19 -2q37 0 50 25t13 77q0 54 -13 78t-50 24zM518 330v-49h-82v-78h96v-49h-155v297h155v-52h-96v-69h82zM203 150q-47 0 -74 4v292q61 9 76 9q67 0 96 -37.5t29 -116.5t-29.5 -115t-97.5 -36zM586 451h80l39 -164l38 164h82
q3 -45 13 -297h-60q0 108 -6 213l-41 -168h-55l-41 168h-2q-4 -140 -4 -213h-58q3 156 15 297zM987 150q-60 0 -84 35.5t-24 115.5q0 81 24 117.5t84 36.5t85.5 -37t25.5 -117q0 -79 -25.5 -115t-85.5 -36zM987 403q-29 0 -39 -23.5t-10 -78.5q0 -54 10 -78t39 -24
q30 0 40.5 24t10.5 78q0 55 -10 78.5t-41 23.5zM967 1016q49 0 79.5 -24.5t39 -51t8.5 -53.5q0 -43 -34.5 -72.5t-72.5 -34.5q-213 -23 -340 -147q3 8 9 22t25 53.5t39 75.5t50 80.5t59.5 76t66 53.5t71.5 22zM285 909q39 0 78 -21t69.5 -55t58.5 -74.5t48 -81.5t35 -75
t22 -55l8 -21q-117 148 -319 148q-49 0 -88 30t-39 76q0 53 33.5 91t93.5 38zM643 1214q38 -37 48.5 -102t-2.5 -131t-31.5 -126.5t-35.5 -98.5l-18 -39q20 191 -125 330q-35 35 -42 81.5t24 83.5q23 23 53 34t65 3.5t64 -35.5z" />
    <glyph glyph-name="greater" unicode="&#x3e;" 
d="M207 403q-13 0 -19 -2v-200q4 -2 19 -2q37 0 50 25t13 77q0 54 -13 78t-50 24zM518 330v-49h-82v-78h96v-49h-155v297h155v-52h-96v-69h82zM203 150q-47 0 -74 4v292q61 9 76 9q67 0 96 -37.5t29 -116.5t-29.5 -115t-97.5 -36zM586 451h80l39 -164l38 164h82
q3 -45 13 -297h-60q0 108 -6 213l-41 -168h-55l-41 168h-2q-4 -140 -4 -213h-58q3 156 15 297zM987 150q-60 0 -84 35.5t-24 115.5q0 81 24 117.5t84 36.5t85.5 -37t25.5 -117q0 -79 -25.5 -115t-85.5 -36zM987 403q-29 0 -39 -23.5t-10 -78.5q0 -54 10 -78t39 -24
q30 0 40.5 24t10.5 78q0 55 -10 78.5t-41 23.5zM967 1016q49 0 79.5 -24.5t39 -51t8.5 -53.5q0 -43 -34.5 -72.5t-72.5 -34.5q-213 -23 -340 -147q3 8 9 22t25 53.5t39 75.5t50 80.5t59.5 76t66 53.5t71.5 22zM285 909q39 0 78 -21t69.5 -55t58.5 -74.5t48 -81.5t35 -75
t22 -55l8 -21q-117 148 -319 148q-49 0 -88 30t-39 76q0 53 33.5 91t93.5 38zM643 1214q38 -37 48.5 -102t-2.5 -131t-31.5 -126.5t-35.5 -98.5l-18 -39q20 191 -125 330q-35 35 -42 81.5t24 83.5q23 23 53 34t65 3.5t64 -35.5z" />
    <glyph glyph-name="question" unicode="?" horiz-adv-x="950" 
d="M266 459v14q0 62 13.5 114.5t31 85.5t49.5 65.5t52.5 47.5t56.5 39q40 26 60 41.5t37.5 43t17.5 59.5q0 52 -32 81t-87 29q-50 0 -84.5 -32t-34.5 -89v-14h-291v27q0 179 118 287t302 108q186 0 303 -106.5t117 -288.5q0 -60 -13.5 -109.5t-30.5 -80t-50 -60t-53.5 -43
t-59.5 -35.5q-36 -21 -53 -33t-40 -33.5t-32.5 -46.5t-9.5 -57v-14h-287zM414 -27q-85 0 -141 56t-56 141t56 141t141 56t140.5 -56t55.5 -141t-55.5 -141t-140.5 -56z" />
    <glyph glyph-name="at" unicode="@" 
d="M207 403q-13 0 -19 -2v-200q4 -2 19 -2q37 0 50 25t13 77q0 54 -13 78t-50 24zM518 330v-49h-82v-78h96v-49h-155v297h155v-52h-96v-69h82zM203 150q-47 0 -74 4v292q61 9 76 9q67 0 96 -37.5t29 -116.5t-29.5 -115t-97.5 -36zM586 451h80l39 -164l38 164h82
q3 -45 13 -297h-60q0 108 -6 213l-41 -168h-55l-41 168h-2q-4 -140 -4 -213h-58q3 156 15 297zM987 150q-60 0 -84 35.5t-24 115.5q0 81 24 117.5t84 36.5t85.5 -37t25.5 -117q0 -79 -25.5 -115t-85.5 -36zM987 403q-29 0 -39 -23.5t-10 -78.5q0 -54 10 -78t39 -24
q30 0 40.5 24t10.5 78q0 55 -10 78.5t-41 23.5zM967 1016q49 0 79.5 -24.5t39 -51t8.5 -53.5q0 -43 -34.5 -72.5t-72.5 -34.5q-213 -23 -340 -147q3 8 9 22t25 53.5t39 75.5t50 80.5t59.5 76t66 53.5t71.5 22zM285 909q39 0 78 -21t69.5 -55t58.5 -74.5t48 -81.5t35 -75
t22 -55l8 -21q-117 148 -319 148q-49 0 -88 30t-39 76q0 53 33.5 91t93.5 38zM643 1214q38 -37 48.5 -102t-2.5 -131t-31.5 -126.5t-35.5 -98.5l-18 -39q20 191 -125 330q-35 35 -42 81.5t24 83.5q23 23 53 34t65 3.5t64 -35.5z" />
    <glyph glyph-name="A" unicode="A" horiz-adv-x="1390" 
d="M104 0v778q0 277 152.5 432.5t435.5 155.5q284 0 438 -155.5t154 -432.5v-778h-332v381h-524v-381h-324zM428 668h524v110q0 140 -63.5 210.5t-198.5 70.5q-262 0 -262 -281v-110z" />
    <glyph glyph-name="B" unicode="B" horiz-adv-x="1282" 
d="M137 0v1339h637q191 0 292 -96.5t101 -255.5q0 -98 -42 -173t-119 -116v-4q106 -38 164.5 -123.5t58.5 -203.5q0 -165 -103.5 -266t-298.5 -101h-690zM469 813h250q62 0 91.5 30.5t29.5 78.5q0 110 -121 110h-250v-219zM469 307h291q68 0 98.5 32.5t30.5 86.5
q0 52 -33.5 86.5t-95.5 34.5h-291v-240z" />
    <glyph glyph-name="C" unicode="C" horiz-adv-x="1538" 
d="M782 -27q-154 0 -287 53t-226 145t-146 221t-53 278t53 278t146 221t226 144.5t287 52.5q266 0 456 -147.5t241 -387.5h-351q-41 105 -131.5 166.5t-214.5 61.5q-169 0 -272.5 -109t-103.5 -280t103.5 -280t272.5 -109q124 0 214.5 61t131.5 166h351
q-51 -240 -241 -387.5t-456 -147.5z" />
    <glyph glyph-name="D" unicode="D" horiz-adv-x="1396" 
d="M137 0v1339h473q346 0 531.5 -180.5t185.5 -488.5q0 -151 -46.5 -274t-135 -211.5t-225 -136.5t-310.5 -48h-473zM469 307h141q195 0 288 95t93 268t-93 267.5t-288 94.5h-141v-725z" />
    <glyph glyph-name="E" unicode="E" horiz-adv-x="1220" 
d="M137 0v1339h989v-307h-657v-219h539v-266h-539v-240h657v-307h-989z" />
    <glyph glyph-name="F" unicode="F" horiz-adv-x="1169" 
d="M137 0v1339h973v-307h-641v-209h522v-286h-522v-537h-332z" />
    <glyph glyph-name="G" unicode="G" horiz-adv-x="1550" 
d="M782 -27q-154 0 -287 53t-226 145t-146 221t-53 278t53 278t146 221t226 144.5t287 52.5q248 0 430.5 -128.5t249.5 -342.5h-364q-48 78 -130 121t-186 43q-169 0 -272.5 -109t-103.5 -280t103.5 -280t272.5 -109q256 0 348 198h-430v266h793v-145q-16 -181 -110 -323.5
t-251 -223t-350 -80.5z" />
    <glyph glyph-name="H" unicode="H" horiz-adv-x="1439" 
d="M137 0v1339h332v-505h502v505h332v-1339h-332v526h-502v-526h-332z" />
    <glyph glyph-name="I" unicode="I" horiz-adv-x="606" 
d="M137 0v1339h332v-1339h-332z" />
    <glyph glyph-name="J" unicode="J" horiz-adv-x="1165" 
d="M543 -27q-241 0 -374.5 136t-133.5 370v6h323v-6q0 -198 187 -198q182 0 182 198v860h332v-860q0 -234 -135 -370t-381 -136z" />
    <glyph glyph-name="K" unicode="K" horiz-adv-x="1308" 
d="M137 0v1339h332v-546l389 546h410l-506 -655l526 -684h-420l-399 563v-563h-332z" />
    <glyph glyph-name="L" unicode="L" horiz-adv-x="1155" 
d="M137 0v1339h332v-1032h633v-307h-965z" />
    <glyph glyph-name="M" unicode="M" horiz-adv-x="1912" 
d="M106 0v848q0 131 36.5 231.5t102.5 162.5t152 93t189 31q248 0 370 -184q122 184 371 184q103 0 189 -31t151.5 -93t102 -162.5t36.5 -231.5v-848h-331v848q0 111 -48 161t-129 50q-80 0 -128 -50.5t-48 -160.5v-848h-331v848q0 110 -48.5 160.5t-128.5 50.5
q-81 0 -128.5 -50t-47.5 -161v-848h-332z" />
    <glyph glyph-name="N" unicode="N" horiz-adv-x="1359" 
d="M106 0v803q0 262 150 412.5t424 150.5t423.5 -150t149.5 -413v-803h-331v803q0 125 -60.5 190.5t-181.5 65.5t-181.5 -65.5t-60.5 -190.5v-803h-332z" />
    <glyph glyph-name="O" unicode="O" horiz-adv-x="1564" 
d="M782 -27q-154 0 -287 53t-226 145t-146 221t-53 278t53 278t146 221t226 144.5t287 52.5q206 0 369 -90t253.5 -249t90.5 -357t-90.5 -357.5t-253.5 -249.5t-369 -90zM782 281q169 0 273 109.5t104 279.5t-104 279.5t-273 109.5t-272.5 -109t-103.5 -280t103.5 -280
t272.5 -109z" />
    <glyph glyph-name="P" unicode="P" horiz-adv-x="1232" 
d="M137 0v1339h527q263 0 394.5 -128.5t131.5 -342.5q0 -104 -31.5 -189t-94 -149t-164.5 -99.5t-236 -35.5h-195v-395h-332zM469 702h201q184 0 184 166q0 164 -184 164h-201v-330z" />
    <glyph glyph-name="Q" unicode="Q" horiz-adv-x="1564" 
d="M1532 -211h-375l-145 217q-103 -33 -230 -33q-154 0 -287 53t-226 145t-146 221t-53 278t53 278t146 221t226 144.5t287 52.5q206 0 369 -90t253.5 -249t90.5 -357q0 -153 -55 -284t-156 -226zM782 281q29 0 43 2l-178 264h379l70 -105q63 94 63 228q0 170 -104 279.5
t-273 109.5t-272.5 -109t-103.5 -280t103.5 -280t272.5 -109z" />
    <glyph glyph-name="R" unicode="R" horiz-adv-x="1275" 
d="M137 0v1339h543q130 0 229 -34t160.5 -95.5t92 -144.5t30.5 -184q0 -145 -63 -253t-189 -161l301 -467h-393l-238 420h-141v-420h-332zM469 727h215q172 0 172 154q0 72 -39 111.5t-133 39.5h-215v-305z" />
    <glyph glyph-name="S" unicode="S" horiz-adv-x="1138" 
d="M569 -27q-225 0 -362 114t-141 308h323q0 -137 180 -137q181 0 181 137q0 21 -7.5 38t-25 30t-33.5 21.5t-47.5 17t-52 13t-60.5 11.5q-78 14 -120.5 24.5t-112 40t-106 68t-66 109t-29.5 164.5q0 192 133 313t348 121q210 0 342 -116.5t140 -307.5h-312q-2 62 -43 100.5
t-123 38.5q-83 0 -124 -39.5t-41 -97.5q0 -21 7.5 -38t24.5 -30t33.5 -21.5t48 -17t52.5 -13t61 -11.5q44 -8 66.5 -12.5t65.5 -15t67.5 -20.5t61 -28t58 -37.5t46.5 -49t38.5 -64t23 -80t9.5 -98.5q0 -199 -138 -317t-366 -118z" />
    <glyph glyph-name="T" unicode="T" horiz-adv-x="1173" 
d="M420 0v1032h-365v307h1063v-307h-366v-1032h-332z" />
    <glyph glyph-name="U" unicode="U" horiz-adv-x="1349" 
d="M680 -27q-274 0 -424 150.5t-150 413.5v802h332v-802q0 -256 240 -256q244 0 244 256v802h323v-802q0 -261 -148.5 -412.5t-416.5 -151.5z" />
    <glyph glyph-name="V" unicode="V" horiz-adv-x="1347" 
d="M492 0l-459 1339h356l289 -954l289 954h348l-459 -1339h-364z" />
    <glyph glyph-name="W" unicode="W" horiz-adv-x="1912" 
d="M586 -27q-103 0 -189 31.5t-152 93.5t-102.5 162.5t-36.5 231.5v847h332v-847q0 -111 47.5 -161t128.5 -50q80 0 128.5 50.5t48.5 160.5v847h331v-847q0 -110 48 -160.5t128 -50.5q81 0 129 50t48 161v847h331v-847q0 -131 -36.5 -231.5t-102 -162.5t-151.5 -93.5
t-189 -31.5q-249 0 -371 185q-122 -185 -370 -185z" />
    <glyph glyph-name="X" unicode="X" horiz-adv-x="1374" 
d="M27 0l442 688l-420 651h391l252 -430l252 430h383l-424 -651l445 -688h-394l-272 469l-274 -469h-381z" />
    <glyph glyph-name="Y" unicode="Y" horiz-adv-x="1335" 
d="M506 0v555l-490 784h392l264 -471l264 471h383l-481 -774v-565h-332z" />
    <glyph glyph-name="Z" unicode="Z" horiz-adv-x="1247" 
d="M88 0v297l621 735h-590v307h1009v-297l-620 -735h641v-307h-1061z" />
    <glyph glyph-name="bracketleft" unicode="[" 
d="M207 403q-13 0 -19 -2v-200q4 -2 19 -2q37 0 50 25t13 77q0 54 -13 78t-50 24zM518 330v-49h-82v-78h96v-49h-155v297h155v-52h-96v-69h82zM203 150q-47 0 -74 4v292q61 9 76 9q67 0 96 -37.5t29 -116.5t-29.5 -115t-97.5 -36zM586 451h80l39 -164l38 164h82
q3 -45 13 -297h-60q0 108 -6 213l-41 -168h-55l-41 168h-2q-4 -140 -4 -213h-58q3 156 15 297zM987 150q-60 0 -84 35.5t-24 115.5q0 81 24 117.5t84 36.5t85.5 -37t25.5 -117q0 -79 -25.5 -115t-85.5 -36zM987 403q-29 0 -39 -23.5t-10 -78.5q0 -54 10 -78t39 -24
q30 0 40.5 24t10.5 78q0 55 -10 78.5t-41 23.5zM967 1016q49 0 79.5 -24.5t39 -51t8.5 -53.5q0 -43 -34.5 -72.5t-72.5 -34.5q-213 -23 -340 -147q3 8 9 22t25 53.5t39 75.5t50 80.5t59.5 76t66 53.5t71.5 22zM285 909q39 0 78 -21t69.5 -55t58.5 -74.5t48 -81.5t35 -75
t22 -55l8 -21q-117 148 -319 148q-49 0 -88 30t-39 76q0 53 33.5 91t93.5 38zM643 1214q38 -37 48.5 -102t-2.5 -131t-31.5 -126.5t-35.5 -98.5l-18 -39q20 191 -125 330q-35 35 -42 81.5t24 83.5q23 23 53 34t65 3.5t64 -35.5z" />
    <glyph glyph-name="backslash" unicode="\" 
d="M207 403q-13 0 -19 -2v-200q4 -2 19 -2q37 0 50 25t13 77q0 54 -13 78t-50 24zM518 330v-49h-82v-78h96v-49h-155v297h155v-52h-96v-69h82zM203 150q-47 0 -74 4v292q61 9 76 9q67 0 96 -37.5t29 -116.5t-29.5 -115t-97.5 -36zM586 451h80l39 -164l38 164h82
q3 -45 13 -297h-60q0 108 -6 213l-41 -168h-55l-41 168h-2q-4 -140 -4 -213h-58q3 156 15 297zM987 150q-60 0 -84 35.5t-24 115.5q0 81 24 117.5t84 36.5t85.5 -37t25.5 -117q0 -79 -25.5 -115t-85.5 -36zM987 403q-29 0 -39 -23.5t-10 -78.5q0 -54 10 -78t39 -24
q30 0 40.5 24t10.5 78q0 55 -10 78.5t-41 23.5zM967 1016q49 0 79.5 -24.5t39 -51t8.5 -53.5q0 -43 -34.5 -72.5t-72.5 -34.5q-213 -23 -340 -147q3 8 9 22t25 53.5t39 75.5t50 80.5t59.5 76t66 53.5t71.5 22zM285 909q39 0 78 -21t69.5 -55t58.5 -74.5t48 -81.5t35 -75
t22 -55l8 -21q-117 148 -319 148q-49 0 -88 30t-39 76q0 53 33.5 91t93.5 38zM643 1214q38 -37 48.5 -102t-2.5 -131t-31.5 -126.5t-35.5 -98.5l-18 -39q20 191 -125 330q-35 35 -42 81.5t24 83.5q23 23 53 34t65 3.5t64 -35.5z" />
    <glyph glyph-name="bracketright" unicode="]" 
d="M207 403q-13 0 -19 -2v-200q4 -2 19 -2q37 0 50 25t13 77q0 54 -13 78t-50 24zM518 330v-49h-82v-78h96v-49h-155v297h155v-52h-96v-69h82zM203 150q-47 0 -74 4v292q61 9 76 9q67 0 96 -37.5t29 -116.5t-29.5 -115t-97.5 -36zM586 451h80l39 -164l38 164h82
q3 -45 13 -297h-60q0 108 -6 213l-41 -168h-55l-41 168h-2q-4 -140 -4 -213h-58q3 156 15 297zM987 150q-60 0 -84 35.5t-24 115.5q0 81 24 117.5t84 36.5t85.5 -37t25.5 -117q0 -79 -25.5 -115t-85.5 -36zM987 403q-29 0 -39 -23.5t-10 -78.5q0 -54 10 -78t39 -24
q30 0 40.5 24t10.5 78q0 55 -10 78.5t-41 23.5zM967 1016q49 0 79.5 -24.5t39 -51t8.5 -53.5q0 -43 -34.5 -72.5t-72.5 -34.5q-213 -23 -340 -147q3 8 9 22t25 53.5t39 75.5t50 80.5t59.5 76t66 53.5t71.5 22zM285 909q39 0 78 -21t69.5 -55t58.5 -74.5t48 -81.5t35 -75
t22 -55l8 -21q-117 148 -319 148q-49 0 -88 30t-39 76q0 53 33.5 91t93.5 38zM643 1214q38 -37 48.5 -102t-2.5 -131t-31.5 -126.5t-35.5 -98.5l-18 -39q20 191 -125 330q-35 35 -42 81.5t24 83.5q23 23 53 34t65 3.5t64 -35.5z" />
    <glyph glyph-name="asciicircum" unicode="^" 
d="M207 403q-13 0 -19 -2v-200q4 -2 19 -2q37 0 50 25t13 77q0 54 -13 78t-50 24zM518 330v-49h-82v-78h96v-49h-155v297h155v-52h-96v-69h82zM203 150q-47 0 -74 4v292q61 9 76 9q67 0 96 -37.5t29 -116.5t-29.5 -115t-97.5 -36zM586 451h80l39 -164l38 164h82
q3 -45 13 -297h-60q0 108 -6 213l-41 -168h-55l-41 168h-2q-4 -140 -4 -213h-58q3 156 15 297zM987 150q-60 0 -84 35.5t-24 115.5q0 81 24 117.5t84 36.5t85.5 -37t25.5 -117q0 -79 -25.5 -115t-85.5 -36zM987 403q-29 0 -39 -23.5t-10 -78.5q0 -54 10 -78t39 -24
q30 0 40.5 24t10.5 78q0 55 -10 78.5t-41 23.5zM967 1016q49 0 79.5 -24.5t39 -51t8.5 -53.5q0 -43 -34.5 -72.5t-72.5 -34.5q-213 -23 -340 -147q3 8 9 22t25 53.5t39 75.5t50 80.5t59.5 76t66 53.5t71.5 22zM285 909q39 0 78 -21t69.5 -55t58.5 -74.5t48 -81.5t35 -75
t22 -55l8 -21q-117 148 -319 148q-49 0 -88 30t-39 76q0 53 33.5 91t93.5 38zM643 1214q38 -37 48.5 -102t-2.5 -131t-31.5 -126.5t-35.5 -98.5l-18 -39q20 191 -125 330q-35 35 -42 81.5t24 83.5q23 23 53 34t65 3.5t64 -35.5z" />
    <glyph glyph-name="underscore" unicode="_" 
d="M207 403q-13 0 -19 -2v-200q4 -2 19 -2q37 0 50 25t13 77q0 54 -13 78t-50 24zM518 330v-49h-82v-78h96v-49h-155v297h155v-52h-96v-69h82zM203 150q-47 0 -74 4v292q61 9 76 9q67 0 96 -37.5t29 -116.5t-29.5 -115t-97.5 -36zM586 451h80l39 -164l38 164h82
q3 -45 13 -297h-60q0 108 -6 213l-41 -168h-55l-41 168h-2q-4 -140 -4 -213h-58q3 156 15 297zM987 150q-60 0 -84 35.5t-24 115.5q0 81 24 117.5t84 36.5t85.5 -37t25.5 -117q0 -79 -25.5 -115t-85.5 -36zM987 403q-29 0 -39 -23.5t-10 -78.5q0 -54 10 -78t39 -24
q30 0 40.5 24t10.5 78q0 55 -10 78.5t-41 23.5zM967 1016q49 0 79.5 -24.5t39 -51t8.5 -53.5q0 -43 -34.5 -72.5t-72.5 -34.5q-213 -23 -340 -147q3 8 9 22t25 53.5t39 75.5t50 80.5t59.5 76t66 53.5t71.5 22zM285 909q39 0 78 -21t69.5 -55t58.5 -74.5t48 -81.5t35 -75
t22 -55l8 -21q-117 148 -319 148q-49 0 -88 30t-39 76q0 53 33.5 91t93.5 38zM643 1214q38 -37 48.5 -102t-2.5 -131t-31.5 -126.5t-35.5 -98.5l-18 -39q20 191 -125 330q-35 35 -42 81.5t24 83.5q23 23 53 34t65 3.5t64 -35.5z" />
    <glyph glyph-name="grave" unicode="`" 
d="M207 403q-13 0 -19 -2v-200q4 -2 19 -2q37 0 50 25t13 77q0 54 -13 78t-50 24zM518 330v-49h-82v-78h96v-49h-155v297h155v-52h-96v-69h82zM203 150q-47 0 -74 4v292q61 9 76 9q67 0 96 -37.5t29 -116.5t-29.5 -115t-97.5 -36zM586 451h80l39 -164l38 164h82
q3 -45 13 -297h-60q0 108 -6 213l-41 -168h-55l-41 168h-2q-4 -140 -4 -213h-58q3 156 15 297zM987 150q-60 0 -84 35.5t-24 115.5q0 81 24 117.5t84 36.5t85.5 -37t25.5 -117q0 -79 -25.5 -115t-85.5 -36zM987 403q-29 0 -39 -23.5t-10 -78.5q0 -54 10 -78t39 -24
q30 0 40.5 24t10.5 78q0 55 -10 78.5t-41 23.5zM967 1016q49 0 79.5 -24.5t39 -51t8.5 -53.5q0 -43 -34.5 -72.5t-72.5 -34.5q-213 -23 -340 -147q3 8 9 22t25 53.5t39 75.5t50 80.5t59.5 76t66 53.5t71.5 22zM285 909q39 0 78 -21t69.5 -55t58.5 -74.5t48 -81.5t35 -75
t22 -55l8 -21q-117 148 -319 148q-49 0 -88 30t-39 76q0 53 33.5 91t93.5 38zM643 1214q38 -37 48.5 -102t-2.5 -131t-31.5 -126.5t-35.5 -98.5l-18 -39q20 191 -125 330q-35 35 -42 81.5t24 83.5q23 23 53 34t65 3.5t64 -35.5z" />
    <glyph glyph-name="a" unicode="a" horiz-adv-x="1245" 
d="M549 -27q-69 0 -137.5 20t-132 62.5t-112.5 102.5t-78.5 147t-29.5 189q0 243 152 393.5t395 150.5q240 0 389.5 -147.5t149.5 -394.5v-496h-283v168q-40 -93 -122 -144t-191 -51zM604 260q104 0 169 68.5t65 177.5t-65 177.5t-169 68.5t-168.5 -68.5t-64.5 -177.5
t64.5 -177.5t168.5 -68.5z" />
    <glyph glyph-name="b" unicode="b" horiz-adv-x="1245" 
d="M639 -27q-237 0 -388 146.5t-151 396.5v938h308v-553q96 137 286 137q70 0 139 -20t133 -62.5t113 -102t78 -146.5t29 -189q0 -244 -152.5 -394.5t-394.5 -150.5zM641 260q104 0 168.5 68.5t64.5 177.5t-64.5 177.5t-168.5 68.5t-168.5 -68.5t-64.5 -177.5t64.5 -177.5
t168.5 -68.5z" />
    <glyph glyph-name="c" unicode="c" horiz-adv-x="1187" 
d="M604 -27q-238 0 -391.5 151t-153.5 382t153.5 381.5t391.5 150.5q209 0 352.5 -117t176.5 -307h-312q-27 64 -84 101t-133 37q-104 0 -168.5 -68.5t-64.5 -177.5t64.5 -177.5t168.5 -68.5q76 0 133 36.5t84 100.5h312q-33 -190 -176.5 -307t-352.5 -117z" />
    <glyph glyph-name="d" unicode="d" horiz-adv-x="1245" 
d="M606 -27q-242 0 -394.5 150.5t-152.5 394.5q0 102 29 189t78 146.5t113 102t133 62.5t139 20q191 0 287 -137v553h307v-938q0 -250 -151 -396.5t-388 -146.5zM604 260q104 0 169 68.5t65 177.5t-65 177.5t-169 68.5t-168.5 -68.5t-64.5 -177.5t64.5 -177.5t168.5 -68.5z
" />
    <glyph glyph-name="e" unicode="e" horiz-adv-x="1202" 
d="M604 -27q-238 0 -391.5 151t-153.5 382t153.5 381.5t391.5 150.5t388.5 -150t150.5 -382v-86h-764q18 -86 78 -129t147 -43q141 0 193 74h317q-50 -159 -186.5 -254t-323.5 -95zM385 614h442q-50 150 -223 150q-82 0 -139 -37.5t-80 -112.5z" />
    <glyph glyph-name="f" unicode="f" horiz-adv-x="1030" 
d="M133 0v1024q0 224 123 340.5t332 116.5q210 0 332 -117t122 -340h-307q0 170 -147 170q-148 0 -148 -170v-154h478v-276h-478v-594h-307z" />
    <glyph glyph-name="g" unicode="g" horiz-adv-x="1245" 
d="M608 -459q-201 0 -338.5 90.5t-181.5 270.5h311q47 -95 207 -95q118 0 175 59t57 202v59q-96 -137 -293 -137q-67 0 -133 17t-130.5 57t-113.5 98t-79 147t-30 197q0 231 153.5 381.5t391.5 150.5q241 0 391 -147.5t150 -394.5v-418q0 -113 -28 -204t-76.5 -152.5
t-117 -102.5t-147 -59.5t-168.5 -18.5zM604 276q106 0 170 61.5t64 168.5q0 109 -65 177.5t-169 68.5t-168.5 -68.5t-64.5 -177.5q0 -107 63.5 -168.5t169.5 -61.5z" />
    <glyph glyph-name="h" unicode="h" horiz-adv-x="1232" 
d="M133 0v1454h307v-551q94 135 252 135q84 0 159.5 -29t140 -88t103 -161.5t38.5 -235.5v-524h-308v524q0 116 -51 172t-141 56q-87 0 -140 -57.5t-53 -170.5v-524h-307z" />
    <glyph glyph-name="i" unicode="i" horiz-adv-x="573" 
d="M287 1104q-85 0 -141 55.5t-56 140.5t56 141t141 56t140.5 -56t55.5 -141t-55.5 -140.5t-140.5 -55.5zM133 0v1012h307v-1012h-307z" />
    <glyph glyph-name="j" unicode="j" horiz-adv-x="573" 
d="M287 1104q-85 0 -141 55.5t-56 140.5t56 141t141 56t140.5 -56t55.5 -141t-55.5 -140.5t-140.5 -55.5zM-8 -446v266h39q55 0 78.5 28t23.5 91v1073h307v-1051q0 -201 -91 -304t-290 -103h-67z" />
    <glyph glyph-name="k" unicode="k" horiz-adv-x="1181" 
d="M133 0v1454h307v-868l322 426h381l-412 -496l428 -516h-389l-330 436v-436h-307z" />
    <glyph glyph-name="l" unicode="l" horiz-adv-x="573" 
d="M133 0v1454h307v-1454h-307z" />
    <glyph glyph-name="m" unicode="m" horiz-adv-x="1748" 
d="M100 0v569q0 119 33 210t92.5 147t137.5 84t172 28q108 0 195 -41t144 -120q115 161 340 161q94 0 172 -28t137.5 -84t92.5 -147t33 -210v-569h-308v569q0 183 -157 183q-156 0 -156 -183v-569h-307v569q0 183 -156 183q-157 0 -157 -183v-569h-308z" />
    <glyph glyph-name="n" unicode="n" horiz-adv-x="1200" 
d="M100 0v524q0 249 135 381.5t365 132.5q231 0 365.5 -132t134.5 -382v-524h-307v524q0 116 -51.5 172t-141.5 56t-141 -56t-51 -172v-524h-308z" />
    <glyph glyph-name="o" unicode="o" horiz-adv-x="1208" 
d="M604 -27q-238 0 -391.5 151t-153.5 382t153.5 381.5t391.5 150.5t391.5 -150.5t153.5 -381.5t-153.5 -382t-391.5 -151zM604 260q104 0 169 68.5t65 177.5t-65 177.5t-169 68.5t-168.5 -68.5t-64.5 -177.5t64.5 -177.5t168.5 -68.5z" />
    <glyph glyph-name="p" unicode="p" horiz-adv-x="1245" 
d="M100 -432v928q0 250 151 396t388 146q243 0 395 -150.5t152 -393.5q0 -102 -29 -189t-78 -147t-113 -102.5t-133 -62.5t-139 -20q-189 0 -286 138v-543h-308zM641 260q104 0 168.5 68.5t64.5 177.5t-64.5 177.5t-168.5 68.5t-168.5 -68.5t-64.5 -177.5t64.5 -177.5
t168.5 -68.5z" />
    <glyph glyph-name="q" unicode="q" horiz-adv-x="1245" 
d="M1145 -432h-307v543q-97 -138 -287 -138q-70 0 -139 20t-133 62.5t-113 102.5t-78 147t-29 189q0 243 152 393.5t395 150.5q237 0 388 -146t151 -396v-928zM604 260q104 0 169 68.5t65 177.5t-65 177.5t-169 68.5t-168.5 -68.5t-64.5 -177.5t64.5 -177.5t168.5 -68.5z
" />
    <glyph glyph-name="r" unicode="r" horiz-adv-x="1034" 
d="M100 0v575q0 229 122.5 346t332.5 117t332 -116.5t123 -348.5v-6h-308v8q0 177 -147 177t-147 -177v-575h-308z" />
    <glyph glyph-name="s" unicode="s" horiz-adv-x="983" 
d="M492 -27q-193 0 -311.5 93t-121.5 241h303q3 -80 125 -80q125 0 125 76q0 30 -23.5 48t-46 23.5t-80.5 13.5l-18 3q-40 6 -65 10t-68 15t-71 24t-62 36t-54 51.5t-34 70t-14 92.5q0 155 113 251.5t300 96.5q184 0 296.5 -93t117.5 -234h-299q-6 35 -35 54t-75 19
q-54 0 -80.5 -22.5t-26.5 -56.5q0 -21 12 -35.5t34.5 -23t49.5 -14t63 -10.5q6 -1 9 -1q39 -5 66.5 -10t69.5 -16t71 -24.5t62 -36.5t53 -51.5t33.5 -69.5t13.5 -91q0 -157 -118.5 -253t-313.5 -96z" />
    <glyph glyph-name="t" unicode="t" horiz-adv-x="995" 
d="M524 -27q-196 0 -310 108t-114 318v971h308v-358h479v-277h-479v-336q0 -139 116 -139q117 0 117 139v31h307v-31q0 -210 -114 -318t-310 -108z" />
    <glyph glyph-name="u" unicode="u" horiz-adv-x="1200" 
d="M600 -27q-231 0 -365.5 132t-134.5 382v525h308v-525q0 -116 51 -171.5t141 -55.5t141.5 55.5t51.5 171.5v525h307v-525q0 -249 -135 -381.5t-365 -132.5z" />
    <glyph glyph-name="v" unicode="v" horiz-adv-x="1155" 
d="M391 0l-362 1012h329l224 -719l223 719h321l-362 -1012h-373z" />
    <glyph glyph-name="w" unicode="w" horiz-adv-x="1748" 
d="M535 -27q-94 0 -172 28t-137.5 84t-92.5 147t-33 210v570h308v-570q0 -182 157 -182q156 0 156 182v570h307v-570q0 -182 156 -182q157 0 157 182v570h308v-570q0 -119 -33 -210t-92.5 -147t-137.5 -84t-172 -28q-224 0 -340 162q-57 -79 -144 -120.5t-195 -41.5z" />
    <glyph glyph-name="x" unicode="x" horiz-adv-x="1175" 
d="M23 0l344 518l-328 494h367l186 -322l186 322h359l-330 -494l346 -518h-367l-202 348l-203 -348h-358z" />
    <glyph glyph-name="y" unicode="y" horiz-adv-x="1232" 
d="M598 -459q-189 0 -320.5 90.5t-168.5 270.5h307q23 -51 65.5 -73t116.5 -22q102 0 148.5 51.5t46.5 166.5v100q-87 -135 -252 -135q-84 0 -159.5 29t-140 88t-103 161.5t-38.5 235.5v508h308v-508q0 -116 51 -172t141 -56q87 0 140 57.5t53 170.5v508h307v-977
q0 -128 -39 -225t-109 -154.5t-158.5 -86t-195.5 -28.5z" />
    <glyph glyph-name="z" unicode="z" horiz-adv-x="1093" 
d="M76 0v256l508 489h-478v267h881v-256l-508 -490h529v-266h-932z" />
    <glyph glyph-name="braceleft" unicode="{" 
d="M207 403q-13 0 -19 -2v-200q4 -2 19 -2q37 0 50 25t13 77q0 54 -13 78t-50 24zM518 330v-49h-82v-78h96v-49h-155v297h155v-52h-96v-69h82zM203 150q-47 0 -74 4v292q61 9 76 9q67 0 96 -37.5t29 -116.5t-29.5 -115t-97.5 -36zM586 451h80l39 -164l38 164h82
q3 -45 13 -297h-60q0 108 -6 213l-41 -168h-55l-41 168h-2q-4 -140 -4 -213h-58q3 156 15 297zM987 150q-60 0 -84 35.5t-24 115.5q0 81 24 117.5t84 36.5t85.5 -37t25.5 -117q0 -79 -25.5 -115t-85.5 -36zM987 403q-29 0 -39 -23.5t-10 -78.5q0 -54 10 -78t39 -24
q30 0 40.5 24t10.5 78q0 55 -10 78.5t-41 23.5zM967 1016q49 0 79.5 -24.5t39 -51t8.5 -53.5q0 -43 -34.5 -72.5t-72.5 -34.5q-213 -23 -340 -147q3 8 9 22t25 53.5t39 75.5t50 80.5t59.5 76t66 53.5t71.5 22zM285 909q39 0 78 -21t69.5 -55t58.5 -74.5t48 -81.5t35 -75
t22 -55l8 -21q-117 148 -319 148q-49 0 -88 30t-39 76q0 53 33.5 91t93.5 38zM643 1214q38 -37 48.5 -102t-2.5 -131t-31.5 -126.5t-35.5 -98.5l-18 -39q20 191 -125 330q-35 35 -42 81.5t24 83.5q23 23 53 34t65 3.5t64 -35.5z" />
    <glyph glyph-name="bar" unicode="|" 
d="M207 403q-13 0 -19 -2v-200q4 -2 19 -2q37 0 50 25t13 77q0 54 -13 78t-50 24zM518 330v-49h-82v-78h96v-49h-155v297h155v-52h-96v-69h82zM203 150q-47 0 -74 4v292q61 9 76 9q67 0 96 -37.5t29 -116.5t-29.5 -115t-97.5 -36zM586 451h80l39 -164l38 164h82
q3 -45 13 -297h-60q0 108 -6 213l-41 -168h-55l-41 168h-2q-4 -140 -4 -213h-58q3 156 15 297zM987 150q-60 0 -84 35.5t-24 115.5q0 81 24 117.5t84 36.5t85.5 -37t25.5 -117q0 -79 -25.5 -115t-85.5 -36zM987 403q-29 0 -39 -23.5t-10 -78.5q0 -54 10 -78t39 -24
q30 0 40.5 24t10.5 78q0 55 -10 78.5t-41 23.5zM967 1016q49 0 79.5 -24.5t39 -51t8.5 -53.5q0 -43 -34.5 -72.5t-72.5 -34.5q-213 -23 -340 -147q3 8 9 22t25 53.5t39 75.5t50 80.5t59.5 76t66 53.5t71.5 22zM285 909q39 0 78 -21t69.5 -55t58.5 -74.5t48 -81.5t35 -75
t22 -55l8 -21q-117 148 -319 148q-49 0 -88 30t-39 76q0 53 33.5 91t93.5 38zM643 1214q38 -37 48.5 -102t-2.5 -131t-31.5 -126.5t-35.5 -98.5l-18 -39q20 191 -125 330q-35 35 -42 81.5t24 83.5q23 23 53 34t65 3.5t64 -35.5z" />
    <glyph glyph-name="braceright" unicode="}" 
d="M207 403q-13 0 -19 -2v-200q4 -2 19 -2q37 0 50 25t13 77q0 54 -13 78t-50 24zM518 330v-49h-82v-78h96v-49h-155v297h155v-52h-96v-69h82zM203 150q-47 0 -74 4v292q61 9 76 9q67 0 96 -37.5t29 -116.5t-29.5 -115t-97.5 -36zM586 451h80l39 -164l38 164h82
q3 -45 13 -297h-60q0 108 -6 213l-41 -168h-55l-41 168h-2q-4 -140 -4 -213h-58q3 156 15 297zM987 150q-60 0 -84 35.5t-24 115.5q0 81 24 117.5t84 36.5t85.5 -37t25.5 -117q0 -79 -25.5 -115t-85.5 -36zM987 403q-29 0 -39 -23.5t-10 -78.5q0 -54 10 -78t39 -24
q30 0 40.5 24t10.5 78q0 55 -10 78.5t-41 23.5zM967 1016q49 0 79.5 -24.5t39 -51t8.5 -53.5q0 -43 -34.5 -72.5t-72.5 -34.5q-213 -23 -340 -147q3 8 9 22t25 53.5t39 75.5t50 80.5t59.5 76t66 53.5t71.5 22zM285 909q39 0 78 -21t69.5 -55t58.5 -74.5t48 -81.5t35 -75
t22 -55l8 -21q-117 148 -319 148q-49 0 -88 30t-39 76q0 53 33.5 91t93.5 38zM643 1214q38 -37 48.5 -102t-2.5 -131t-31.5 -126.5t-35.5 -98.5l-18 -39q20 191 -125 330q-35 35 -42 81.5t24 83.5q23 23 53 34t65 3.5t64 -35.5z" />
    <glyph glyph-name="asciitilde" unicode="~" 
d="M207 403q-13 0 -19 -2v-200q4 -2 19 -2q37 0 50 25t13 77q0 54 -13 78t-50 24zM518 330v-49h-82v-78h96v-49h-155v297h155v-52h-96v-69h82zM203 150q-47 0 -74 4v292q61 9 76 9q67 0 96 -37.5t29 -116.5t-29.5 -115t-97.5 -36zM586 451h80l39 -164l38 164h82
q3 -45 13 -297h-60q0 108 -6 213l-41 -168h-55l-41 168h-2q-4 -140 -4 -213h-58q3 156 15 297zM987 150q-60 0 -84 35.5t-24 115.5q0 81 24 117.5t84 36.5t85.5 -37t25.5 -117q0 -79 -25.5 -115t-85.5 -36zM987 403q-29 0 -39 -23.5t-10 -78.5q0 -54 10 -78t39 -24
q30 0 40.5 24t10.5 78q0 55 -10 78.5t-41 23.5zM967 1016q49 0 79.5 -24.5t39 -51t8.5 -53.5q0 -43 -34.5 -72.5t-72.5 -34.5q-213 -23 -340 -147q3 8 9 22t25 53.5t39 75.5t50 80.5t59.5 76t66 53.5t71.5 22zM285 909q39 0 78 -21t69.5 -55t58.5 -74.5t48 -81.5t35 -75
t22 -55l8 -21q-117 148 -319 148q-49 0 -88 30t-39 76q0 53 33.5 91t93.5 38zM643 1214q38 -37 48.5 -102t-2.5 -131t-31.5 -126.5t-35.5 -98.5l-18 -39q20 191 -125 330q-35 35 -42 81.5t24 83.5q23 23 53 34t65 3.5t64 -35.5z" />
    </font>
</defs>
</svg>
